<?xml version="1.0" standalone="no"?>
<!DOCTYPE svg PUBLIC "-//W3C//DTD SVG 1.1//EN" "http://www.w3.org/Graphics/SVG/1.1/DTD/svg11.dtd" >
<svg xmlns="http://www.w3.org/2000/svg" xmlns:xlink="http://www.w3.org/1999/xlink" version="1.1">
<metadata>
Created by FontForge 20161003 at Fri Jan  4 06:12:37 2019
 By www-data
Copyright 2010, 2012, 2014 Adobe Systems Incorporated (http://www.adobe.com/), with Reserved Font Name `Source'.
</metadata>
<defs>
<font id="SourceSansProRegular" horiz-adv-x="0" >
  <font-face 
    font-family="SourceSansProRegular"
    font-weight="400"
    font-stretch="normal"
    units-per-em="1000"
    panose-1="2 11 5 3 3 4 3 2 2 4"
    ascent="750"
    descent="-250"
    x-height="486"
    cap-height="656"
    bbox="-454 -293 2159 968"
    underline-thickness="50"
    underline-position="-150"
    unicode-range="U+0020-1F16B"
  />
<missing-glyph horiz-adv-x="653" 
d="M89 0v660h476v-660h-476zM197 58h257l-73 132l-52 103h-4l-54 -103zM325 387h4l49 94l66 119h-235l66 -119zM154 110l127 230l-127 232v-462zM498 110v462l-126 -232z" />
    <glyph glyph-name="f_f" unicode="ff" horiz-adv-x="577" 
d="M381 0v419h-203v-419h-82v419h-66v62l66 5v64q0 77 38.5 120.5t112.5 43.5q50 0 89 -18l-17 -62q-30 13 -65 13q-36 0 -56 -25.5t-20 -73.5v-62h203v77q0 76 35.5 118.5t106.5 42.5q42 0 81 -16l-18 -63q-27 12 -55 12q-68 0 -68 -94v-77h103v-67h-103v-419h-82z" />
    <glyph glyph-name="f_t" unicode="ft" horiz-adv-x="594" 
d="M96 0v419h-66v62l66 5v77q0 76 35.5 118.5t106.5 42.5q42 0 81 -16l-18 -63q-27 12 -55 12q-68 0 -68 -94v-77h178l10 136h68v-136h132v-67h-132v-270q0 -94 76 -94q20 0 55 13l16 -62q-54 -18 -90 -18q-139 0 -139 162v269h-174v-419h-82z" />
    <glyph glyph-name="f_f_t" unicode="fft" horiz-adv-x="879" 
d="M96 0v419h-66v62l66 5v64q0 77 38.5 120.5t112.5 43.5q50 0 89 -18l-17 -62q-30 13 -65 13q-36 0 -56 -25.5t-20 -73.5v-62h203v77q0 76 35.5 118.5t106.5 42.5q42 0 81 -16l-18 -63q-27 12 -55 12q-68 0 -68 -94v-77h178l10 136h68v-136h132v-67h-132v-270q0 -94 76 -94
q20 0 55 13l16 -62q-54 -18 -90 -18q-139 0 -139 162v269h-174v-419h-82v419h-203v-419h-82z" />
    <glyph glyph-name=".notdef" horiz-adv-x="653" 
d="M89 0v660h476v-660h-476zM197 58h257l-73 132l-52 103h-4l-54 -103zM325 387h4l49 94l66 119h-235l66 -119zM154 110l127 230l-127 232v-462zM498 110v462l-126 -232z" />
    <glyph glyph-name=".null" 
 />
    <glyph glyph-name="nonmarkingreturn" horiz-adv-x="333" 
 />
    <glyph glyph-name="space" unicode=" " horiz-adv-x="200" 
 />
    <glyph glyph-name="exclam" unicode="!" horiz-adv-x="289" 
d="M116 198l-11 378l-2 94h83l-2 -94l-11 -378h-57zM145 -12q-25 0 -42.5 17.5t-17.5 44.5q0 28 17.5 46t42.5 18t42 -18t17 -46q0 -27 -17.5 -44.5t-41.5 -17.5z" />
    <glyph glyph-name="quotedbl" unicode="&#x22;" horiz-adv-x="426" 
d="M99 431l-16 167l-3 92h88l-3 -92l-16 -167h-50zM276 431l-16 167l-3 92h88l-3 -92l-16 -167h-50z" />
    <glyph glyph-name="numbersign" unicode="#" horiz-adv-x="497" 
d="M90 0l25 204h-80v57h87l18 148h-85v58h92l23 183h53l-23 -183h133l24 183h53l-24 -183h81v-58h-87l-18 -148h85v-57h-92l-25 -204h-53l24 204h-132l-25 -204h-54zM176 261h132l18 148h-132z" />
    <glyph glyph-name="dollar" unicode="$" horiz-adv-x="497" 
d="M222 -110v99q-97 9 -170 77l38 57q78 -67 155 -67q54 0 82.5 27.5t28.5 75.5q0 44 -28.5 76t-69.5 52t-82.5 42t-70 60t-28.5 92q0 66 39.5 111t105.5 55v101h60v-99q78 -9 142 -76l-44 -49q-31 30 -57.5 43.5t-64.5 13.5q-46 0 -73 -26t-27 -70q0 -29 15.5 -51.5t40 -38
t54 -29.5t59.5 -31t54.5 -38t40 -54.5t15.5 -77.5q0 -71 -42 -117.5t-113 -56.5v-101h-60z" />
    <glyph glyph-name="percent" unicode="%" horiz-adv-x="824" 
d="M184 254q-68 0 -108.5 55t-40.5 153q0 97 40.5 151.5t108.5 54.5t108.5 -54.5t40.5 -151.5q0 -98 -40.5 -153t-108.5 -55zM184 305q39 0 62.5 40.5t23.5 116.5t-23 115.5t-63 39.5t-63.5 -39.5t-23.5 -115.5t23.5 -116.5t63.5 -40.5zM203 -12l362 680h56l-362 -680h-56z
M641 -12q-68 0 -108.5 55t-40.5 153q0 97 40.5 151.5t108.5 54.5t108.5 -54.5t40.5 -151.5q0 -98 -40.5 -153t-108.5 -55zM641 39q39 0 62.5 40.5t23.5 116.5t-23 115.5t-63 39.5t-63.5 -39.5t-23.5 -115.5t23.5 -116.5t63.5 -40.5z" />
    <glyph glyph-name="ampersand" unicode="&#x26;" horiz-adv-x="609" 
d="M232 -12q-89 0 -144.5 51t-55.5 131q0 60 34.5 103.5t94.5 85.5q-43 86 -43 154q0 66 42.5 110.5t109.5 44.5q60 0 94.5 -35.5t34.5 -94.5q0 -31 -11.5 -58t-36.5 -52.5t-44.5 -41.5t-55.5 -42q62 -97 166 -184q63 85 92 194h77q-42 -138 -115 -235q70 -48 123 -63
l-22 -68q-73 21 -151 75q-83 -75 -189 -75zM189 514q0 -50 31 -115q55 37 83.5 68t28.5 70q0 31 -15.5 51.5t-46.5 20.5q-36 0 -58.5 -27t-22.5 -68zM241 54q64 0 125 53q-105 92 -172 195q-82 -66 -82 -127q0 -54 37 -87.5t92 -33.5z" />
    <glyph glyph-name="quotesingle" unicode="'" horiz-adv-x="249" 
d="M99 431l-16 167l-3 92h88l-3 -92l-16 -167h-50z" />
    <glyph glyph-name="parenleft" unicode="(" horiz-adv-x="303" 
d="M214 -176q-132 213 -132 454t132 454l51 -24q-115 -190 -115 -430t115 -430z" />
    <glyph glyph-name="parenright" unicode=")" horiz-adv-x="303" 
d="M89 -176l-51 24q115 190 115 430t-115 430l51 24q132 -213 132 -454t-132 -454z" />
    <glyph glyph-name="asterisk" unicode="*" horiz-adv-x="418" 
d="M138 420l-40 29l57 94l-97 40l15 46l102 -25l9 108h49l9 -107l103 24l15 -46l-97 -40l56 -94l-39 -29l-71 86z" />
    <glyph glyph-name="plus" unicode="+" horiz-adv-x="497" 
d="M216 104v195h-182v62h182v195h65v-195h182v-62h-182v-195h-65z" />
    <glyph glyph-name="comma" unicode="," horiz-adv-x="249" 
d="M67 -170l-20 48q43 19 67 51t23 71q-3 -1 -10 -1q-25 0 -42 15t-17 42q0 26 17.5 42t43.5 16q32 0 50.5 -26t18.5 -71q0 -64 -34.5 -112.5t-96.5 -74.5z" />
    <glyph glyph-name="hyphen" unicode="-" horiz-adv-x="311" 
d="M41 219v63h230v-63h-230z" />
    <glyph glyph-name="period" unicode="." horiz-adv-x="249" 
d="M125 -12q-25 0 -42.5 17.5t-17.5 44.5q0 28 17.5 46t42.5 18t42 -18t17 -46q0 -27 -17.5 -44.5t-41.5 -17.5z" />
    <glyph glyph-name="slash" unicode="/" horiz-adv-x="350" 
d="M10 -160l267 870h60l-267 -870h-60z" />
    <glyph glyph-name="zero" unicode="0" horiz-adv-x="497" 
d="M249 -12q-97 0 -151 87t-54 246t54 244t151 85q96 0 150 -85t54 -244t-54 -246t-150 -87zM249 54q58 0 91 66t33 201q0 263 -124 263q-125 0 -125 -263q0 -135 33 -201t92 -66z" />
    <glyph glyph-name="one" unicode="1" horiz-adv-x="497" 
d="M79 0v68h146v470h-116v53q80 14 135 47h63v-570h132v-68h-360z" />
    <glyph glyph-name="two" unicode="2" horiz-adv-x="497" 
d="M40 0v49q83 83 129.5 132t90.5 103.5t62 95t18 78.5q0 57 -31 91t-90 34q-70 0 -136 -77l-47 47q89 97 193 97q88 0 139.5 -51.5t51.5 -136.5q0 -82 -61.5 -168t-198.5 -229q70 6 107 6h185v-71h-412z" />
    <glyph glyph-name="three" unicode="3" horiz-adv-x="497" 
d="M236 -12q-128 0 -210 90l42 54q72 -76 163 -76q58 0 95 32t37 85q0 127 -204 127v63q181 0 181 119q0 47 -29.5 74t-80.5 27q-71 0 -136 -65l-44 52q85 80 183 80q85 0 138 -43t53 -119q0 -108 -116 -152v-4q61 -14 99.5 -56.5t38.5 -105.5q0 -83 -60 -132.5t-150 -49.5z
" />
    <glyph glyph-name="four" unicode="4" horiz-adv-x="497" 
d="M304 0v176h-287v54l273 408h92v-396h87v-66h-87v-176h-78zM104 242h200v185q0 38 5 123h-4q-2 -4 -52 -90z" />
    <glyph glyph-name="five" unicode="5" horiz-adv-x="497" 
d="M234 -12q-122 0 -209 87l40 54q73 -73 161 -73q60 0 100 40.5t40 105.5t-37 102.5t-99 37.5q-50 0 -109 -39l-44 28l21 307h319v-71h-247l-17 -189q49 26 98 26q87 0 142.5 -50.5t55.5 -149.5t-63.5 -157.5t-151.5 -58.5z" />
    <glyph glyph-name="six" unicode="6" horiz-adv-x="497" 
d="M268 -12q-98 0 -159 79.5t-61 227.5q0 180 69 267.5t174 87.5q91 0 154 -68l-46 -51q-42 50 -105 50q-73 0 -119 -64.5t-49 -206.5q30 37 70 58.5t79 21.5q85 0 133.5 -50.5t48.5 -146.5q0 -90 -55 -147.5t-134 -57.5zM268 53q48 0 79.5 39t31.5 101q0 64 -30 99.5
t-88 35.5q-33 0 -69 -21t-64 -63q8 -93 43.5 -142t96.5 -49z" />
    <glyph glyph-name="seven" unicode="7" horiz-adv-x="497" 
d="M177 0q8 181 49.5 309t135.5 258h-318v71h411v-51q-108 -138 -146 -262.5t-47 -324.5h-85z" />
    <glyph glyph-name="eight" unicode="8" horiz-adv-x="497" 
d="M250 -12q-90 0 -149.5 49.5t-59.5 125.5q0 108 120 172v4q-89 62 -89 147q0 73 51.5 118.5t129.5 45.5q82 0 131 -47.5t49 -122.5q0 -46 -26.5 -86.5t-61.5 -67.5v-4q51 -30 81 -67.5t30 -96.5q0 -73 -57.5 -121.5t-148.5 -48.5zM295 348q67 59 67 128q0 49 -30 81
t-81 32q-45 0 -74 -28.5t-29 -74.5q0 -51 37.5 -80.5t109.5 -57.5zM252 49q55 0 90 31t35 81q0 24 -10.5 44t-22 32.5t-41 28t-44.5 22t-55 22.5q-89 -59 -89 -139q0 -53 39 -87.5t98 -34.5z" />
    <glyph glyph-name="nine" unicode="9" horiz-adv-x="497" 
d="M235 310q76 0 134 85q-17 190 -141 190q-47 0 -79 -39t-32 -101q0 -64 30 -99.5t88 -35.5zM205 -12q-92 0 -154 67l46 52q43 -51 105 -51q74 0 120.5 65t48.5 209q-30 -38 -70 -60t-80 -22q-84 0 -132.5 50.5t-48.5 146.5q0 90 55 147.5t133 57.5q98 0 159 -79t61 -228
q0 -180 -69 -267.5t-174 -87.5z" />
    <glyph glyph-name="colon" unicode=":" horiz-adv-x="249" 
d="M125 349q-25 0 -42.5 17.5t-17.5 44.5q0 28 17.5 46t42.5 18t42 -18t17 -46q0 -27 -17.5 -44.5t-41.5 -17.5zM125 -12q-25 0 -42.5 17.5t-17.5 44.5q0 28 17.5 46t42.5 18t42 -18t17 -46q0 -27 -17.5 -44.5t-41.5 -17.5z" />
    <glyph glyph-name="semicolon" unicode=";" horiz-adv-x="249" 
d="M125 349q-25 0 -42.5 17.5t-17.5 44.5q0 28 17.5 46t42.5 18t42 -18t17 -46q0 -27 -17.5 -44.5t-41.5 -17.5zM67 -170l-20 48q43 19 67 51t23 71q-3 -1 -10 -1q-25 0 -42 15t-17 42q0 26 17.5 42t43.5 16q32 0 50.5 -26t18.5 -71q0 -64 -34.5 -112.5t-96.5 -74.5z" />
    <glyph glyph-name="less" unicode="&#x3c;" horiz-adv-x="497" 
d="M463 131l-429 168v66l429 168v-71l-211 -78l-134 -50v-4l134 -50l211 -78v-71z" />
    <glyph glyph-name="equal" unicode="=" horiz-adv-x="497" 
d="M34 406v62h429v-62h-429zM34 192v62h429v-62h-429z" />
    <glyph glyph-name="greater" unicode="&#x3e;" horiz-adv-x="497" 
d="M34 131v71l211 78l134 50v4l-134 50l-211 78v71l429 -168v-66z" />
    <glyph glyph-name="question" unicode="?" horiz-adv-x="425" 
d="M160 198q-6 43 5.5 82t33 68t43.5 55t38.5 55.5t16.5 58.5q0 42 -25.5 69.5t-71.5 27.5q-65 0 -115 -58l-47 43q73 83 172 83q76 0 121.5 -43t45.5 -117q0 -36 -16.5 -70t-39.5 -61t-45 -55t-35 -63.5t-9 -74.5h-72zM198 -12q-25 0 -42 17.5t-17 44.5q0 28 17 46t42 18
t42.5 -18t17.5 -46q0 -27 -17.5 -44.5t-42.5 -17.5z" />
    <glyph glyph-name="at" unicode="@" horiz-adv-x="847" 
d="M403 -155q-153 0 -252.5 94.5t-99.5 263.5q0 196 122 319.5t295 123.5q150 0 239 -91t89 -240q0 -123 -62 -194.5t-138 -71.5q-42 0 -70 19.5t-33 56.5h-2q-58 -68 -122 -68q-53 0 -86.5 37.5t-33.5 103.5q0 86 54.5 159t137.5 73q54 0 80 -48h2l11 40h55l-39 -200
q-30 -117 54 -117q51 0 92.5 57.5t41.5 149.5q0 125 -72 202t-205 77q-140 0 -245 -108t-105 -277q0 -143 83.5 -224.5t214.5 -81.5q84 0 162 45l22 -49q-85 -51 -190 -51zM385 113q43 0 92 59l29 159q-26 42 -64 42q-56 0 -91.5 -54t-35.5 -116q0 -46 19 -68t51 -22z" />
    <glyph glyph-name="A" unicode="A" horiz-adv-x="544" 
d="M203 367l-31 -100h197l-31 100q-31 94 -66 221h-4q-31 -117 -65 -221zM3 0l222 656h94l222 -656h-89l-62 200h-239l-63 -200h-85z" />
    <glyph glyph-name="B" unicode="B" horiz-adv-x="588" 
d="M90 0v656h195q225 0 225 -160q0 -50 -25.5 -89t-70.5 -54v-4q62 -12 98 -52t36 -105q0 -94 -67.5 -143t-181.5 -49h-209zM173 377h97q158 0 158 108q0 56 -38 80.5t-116 24.5h-101v-213zM173 66h114q179 0 179 129q0 118 -179 118h-114v-247z" />
    <glyph glyph-name="C" unicode="C" horiz-adv-x="571" 
d="M338 -12q-126 0 -206 91.5t-80 248.5q0 155 81.5 247.5t209.5 92.5q108 0 180 -81l-45 -54q-59 62 -134 62q-93 0 -149.5 -71.5t-56.5 -193.5q0 -124 55 -196.5t148 -72.5q84 0 152 74l46 -52q-82 -95 -201 -95z" />
    <glyph glyph-name="D" unicode="D" horiz-adv-x="615" 
d="M90 0v656h164q151 0 230.5 -84t79.5 -241q0 -158 -79 -244.5t-227 -86.5h-168zM173 68h75q113 0 171.5 68.5t58.5 194.5q0 125 -58 191t-172 66h-75v-520z" />
    <glyph glyph-name="E" unicode="E" horiz-adv-x="527" 
d="M90 0v656h378v-70h-295v-206h249v-71h-249v-238h305v-71h-388z" />
    <glyph glyph-name="F" unicode="F" horiz-adv-x="494" 
d="M90 0v656h378v-70h-295v-222h250v-70h-250v-294h-83z" />
    <glyph glyph-name="G" unicode="G" horiz-adv-x="617" 
d="M348 -12q-132 0 -214 91t-82 249q0 156 84 248t217 92q112 0 189 -81l-46 -54q-60 62 -141 62q-99 0 -158 -71.5t-59 -193.5q0 -125 57 -197t161 -72q76 0 118 39v171h-139v69h215v-276q-73 -76 -202 -76z" />
    <glyph glyph-name="H" unicode="H" horiz-adv-x="652" 
d="M90 0v656h83v-275h305v275h84v-656h-84v309h-305v-309h-83z" />
    <glyph glyph-name="I" unicode="I" horiz-adv-x="263" 
d="M90 0v656h83v-656h-83z" />
    <glyph glyph-name="J" unicode="J" horiz-adv-x="480" 
d="M212 -12q-123 0 -181 105l60 42q41 -74 113 -74q53 0 79 33t26 107v455h84v-463q0 -91 -45 -148t-136 -57z" />
    <glyph glyph-name="K" unicode="K" horiz-adv-x="579" 
d="M90 0v656h83v-329h3l273 329h94l-205 -250l237 -406h-93l-196 341l-113 -133v-208h-83z" />
    <glyph glyph-name="L" unicode="L" horiz-adv-x="486" 
d="M90 0v656h83v-585h287v-71h-370z" />
    <glyph glyph-name="M" unicode="M" horiz-adv-x="727" 
d="M90 0v656h100l126 -350q8 -22 23.5 -68t23.5 -69h4q8 23 22.5 69t22.5 68l124 350h101v-656h-78v361q0 35 11 194h-4l-52 -149l-124 -340h-55l-124 340l-52 149h-4q10 -145 10 -194v-361h-75z" />
    <glyph glyph-name="N" unicode="N" horiz-adv-x="647" 
d="M90 0v656h86l237 -412l71 -136h4q-10 165 -10 209v339h79v-656h-86l-238 413l-71 135h-4q11 -145 11 -205v-343h-79z" />
    <glyph glyph-name="O" unicode="O" horiz-adv-x="664" 
d="M332 -12q-125 0 -202.5 93t-77.5 250q0 155 77.5 246t202.5 91t203 -91t78 -246q0 -157 -78 -250t-203 -93zM332 61q88 0 141 73.5t53 196.5q0 122 -53 193t-141 71t-141 -71t-53 -193q0 -123 53 -196.5t141 -73.5z" />
    <glyph glyph-name="P" unicode="P" horiz-adv-x="566" 
d="M90 0v656h187q246 0 246 -193q0 -100 -65 -151.5t-177 -51.5h-108v-260h-83zM173 328h98q86 0 127.5 33t41.5 102t-42 97.5t-131 28.5h-94v-261z" />
    <glyph glyph-name="Q" unicode="Q" horiz-adv-x="664" 
d="M332 57q88 0 141 74t53 200q0 122 -53 193t-141 71t-141 -71t-53 -193q0 -126 53 -200t141 -74zM533 -165q-87 0 -149.5 42.5t-92.5 113.5q-109 15 -174 106t-65 234q0 155 77.5 246t202.5 91t203 -91t78 -246q0 -140 -63 -230.5t-169 -108.5q45 -87 161 -87q37 0 69 9
l16 -64q-37 -15 -94 -15z" />
    <glyph glyph-name="R" unicode="R" horiz-adv-x="569" 
d="M90 0v656h205q230 0 230 -184q0 -75 -39 -122t-109 -64l167 -286h-94l-158 277h-119v-277h-83zM173 345h110q159 0 159 127q0 62 -40 89.5t-119 27.5h-110v-244z" />
    <glyph glyph-name="S" unicode="S" horiz-adv-x="534" 
d="M272 -12q-136 0 -230 97l50 58q79 -82 181 -82q64 0 100.5 29t36.5 78q0 24 -7 41.5t-25.5 31.5t-32.5 21.5t-44 21.5l-94 41q-133 56 -133 169q0 75 58.5 124.5t147.5 49.5q115 0 194 -81l-45 -54q-65 62 -149 62q-55 0 -88.5 -26t-33.5 -70q0 -22 8.5 -39.5t27.5 -31
t33 -20.5t40 -18l93 -40q65 -28 100 -68t35 -107q0 -80 -61 -133.5t-162 -53.5z" />
    <glyph glyph-name="T" unicode="T" horiz-adv-x="536" 
d="M226 0v586h-198v70h480v-70h-198v-586h-84z" />
    <glyph glyph-name="U" unicode="U" horiz-adv-x="645" 
d="M323 -12q-109 0 -172.5 67t-63.5 216v385h83v-387q0 -208 153 -208q155 0 155 208v387h80v-385q0 -283 -235 -283z" />
    <glyph glyph-name="V" unicode="V" horiz-adv-x="515" 
d="M210 0l-210 656h89l105 -354q10 -32 30 -103.5t34 -113.5h4q14 44 35 118t28 99l105 354h85l-208 -656h-97z" />
    <glyph glyph-name="W" unicode="W" horiz-adv-x="786" 
d="M162 0l-139 656h86l69 -357q6 -35 19 -105.5t19 -106.5h4q8 39 24 111t22 101l91 357h76l91 -357q8 -34 48 -212h4q24 142 37 212l69 357h80l-136 -656h-100l-99 395q-17 71 -32 149h-4q-6 -29 -17.5 -80.5t-15.5 -68.5l-97 -395h-99z" />
    <glyph glyph-name="X" unicode="X" horiz-adv-x="513" 
d="M15 0l191 339l-178 317h92l89 -168q14 -25 51 -95h4q29 61 47 95l87 168h88l-179 -321l191 -335h-92l-96 177q-5 9 -24.5 45.5t-31.5 59.5h-4q-10 -20 -52 -105l-95 -177h-88z" />
    <glyph glyph-name="Y" unicode="Y" horiz-adv-x="476" 
d="M196 0v254l-197 402h89l85 -185q46 -105 63 -143h4q57 122 66 143l84 185h87l-197 -402v-254h-84z" />
    <glyph glyph-name="Z" unicode="Z" horiz-adv-x="539" 
d="M45 0v50l345 536h-314v70h418v-49l-346 -536h349v-71h-452z" />
    <glyph glyph-name="bracketleft" unicode="[" horiz-adv-x="303" 
d="M94 -152v860h179v-47h-117v-766h117v-47h-179z" />
    <glyph glyph-name="backslash" unicode="\" horiz-adv-x="350" 
d="M281 -160l-267 870h59l267 -870h-59z" />
    <glyph glyph-name="bracketright" unicode="]" horiz-adv-x="303" 
d="M31 -152v47h116v766h-116v47h178v-860h-178z" />
    <glyph glyph-name="asciicircum" unicode="^" horiz-adv-x="497" 
d="M60 284l152 386h73l152 -386h-72l-65 176l-49 133h-4l-50 -133l-65 -176h-72z" />
    <glyph glyph-name="underscore" unicode="_" horiz-adv-x="500" 
d="M12 -126v55h476v-55h-476z" />
    <glyph glyph-name="grave" unicode="`" horiz-adv-x="542" 
d="M285 573l-157 153l58 55l141 -167z" />
    <glyph glyph-name="a" unicode="a" horiz-adv-x="504" 
d="M194 -12q-62 0 -102 37t-40 101q0 79 71 122t227 60q0 122 -100 122q-69 0 -145 -52l-32 57q98 63 191 63q86 0 127.5 -52.5t41.5 -147.5v-298h-68l-7 58h-3q-85 -70 -161 -70zM218 54q59 0 132 65v135q-118 -15 -168 -44.5t-50 -77.5q0 -39 24 -58.5t62 -19.5z" />
    <glyph glyph-name="b" unicode="b" horiz-adv-x="553" 
d="M297 -12q-71 0 -139 62h-3l-7 -50h-66v712h82v-194l-2 -88q77 68 152 68q93 0 143 -66t50 -181q0 -120 -61.5 -191.5t-148.5 -71.5zM283 57q61 0 100 52.5t39 140.5q0 179 -128 179q-59 0 -130 -66v-255q59 -51 119 -51z" />
    <glyph glyph-name="c" unicode="c" horiz-adv-x="456" 
d="M274 -12q-100 0 -164 68t-64 186t68 187t166 69q79 0 142 -57l-42 -54q-48 43 -97 43q-66 0 -109 -52.5t-43 -135.5t41.5 -134.5t108.5 -51.5q60 0 114 49l36 -55q-70 -62 -157 -62z" />
    <glyph glyph-name="d" unicode="d" horiz-adv-x="555" 
d="M248 -12q-93 0 -147 67t-54 187q0 115 62 185.5t149 70.5q67 0 136 -56l-4 83v187h83v-712h-68l-7 57h-3q-71 -69 -147 -69zM266 57q64 0 124 67v254q-57 51 -118 51q-59 0 -99.5 -52t-40.5 -134q0 -87 35.5 -136.5t98.5 -49.5z" />
    <glyph glyph-name="e" unicode="e" horiz-adv-x="496" 
d="M279 -12q-100 0 -166.5 69t-66.5 185q0 114 65 185t153 71q92 0 143 -61.5t51 -166.5q0 -29 -3 -47h-328q5 -77 48.5 -123t113.5 -46q62 0 121 38l29 -54q-78 -50 -160 -50zM126 282h260q0 73 -31.5 112t-88.5 39q-53 0 -93 -40.5t-47 -110.5z" />
    <glyph glyph-name="f" unicode="f" horiz-adv-x="292" 
d="M96 0v419h-66v62l66 5v77q0 76 35.5 118.5t106.5 42.5q42 0 81 -16l-18 -63q-27 12 -55 12q-68 0 -68 -94v-77h103v-67h-103v-419h-82z" />
    <glyph glyph-name="g" unicode="g" horiz-adv-x="504" 
d="M246 -224q-91 0 -146 34.5t-55 96.5t71 110v4q-43 27 -43 79q0 54 53 90v4q-63 51 -63 131q0 77 53 125t130 48q38 0 69 -12h169v-63h-100q40 -38 40 -100q0 -76 -51 -122.5t-127 -46.5q-39 0 -73 17q-31 -27 -31 -58q0 -53 86 -53h94q86 0 128 -28t42 -88
q0 -70 -68 -119t-178 -49zM246 209q43 0 73 32t30 84t-29.5 82.5t-73.5 30.5t-73.5 -30.5t-29.5 -82.5t30 -84t73 -32zM258 -167q67 0 110.5 29.5t43.5 69.5q0 33 -24.5 46.5t-73.5 13.5h-84q-35 0 -63 8q-50 -36 -50 -82q0 -39 37.5 -62t103.5 -23z" />
    <glyph glyph-name="h" unicode="h" horiz-adv-x="544" 
d="M82 0v712h82v-194l-3 -100q84 80 162 80q148 0 148 -190v-308h-82v297q0 68 -22 99t-70 31q-35 0 -64 -17.5t-69 -57.5v-352h-82z" />
    <glyph glyph-name="i" unicode="i" horiz-adv-x="246" 
d="M82 0v486h82v-486h-82zM124 586q-24 0 -40.5 15t-16.5 38q0 24 16.5 38.5t40.5 14.5t40.5 -14.5t16.5 -38.5q0 -23 -16.5 -38t-40.5 -15z" />
    <glyph glyph-name="j" unicode="j" horiz-adv-x="247" 
d="M32 -217q-40 0 -72 13l17 62q24 -8 46 -8q34 0 47 23.5t13 71.5v541h82v-541q0 -162 -133 -162zM125 586q-24 0 -40.5 15t-16.5 38q0 24 16.5 38.5t40.5 14.5t40 -14.5t16 -38.5q0 -23 -16 -38t-40 -15z" />
    <glyph glyph-name="k" unicode="k" horiz-adv-x="495" 
d="M82 0v712h81v-482h3l207 256h91l-163 -195l185 -291h-90l-142 234l-91 -106v-128h-81z" />
    <glyph glyph-name="l" unicode="l" horiz-adv-x="255" 
d="M169 -12q-87 0 -87 110v614h82v-620q0 -36 23 -36q9 0 18 2l11 -62q-18 -8 -47 -8z" />
    <glyph glyph-name="m" unicode="m" horiz-adv-x="829" 
d="M82 0v486h68l7 -70h3q75 82 151 82q102 0 134 -93q86 93 160 93q148 0 148 -190v-308h-82v297q0 68 -22 99t-68 31q-55 0 -122 -75v-352h-82v297q0 68 -22 99t-69 31q-54 0 -122 -75v-352h-82z" />
    <glyph glyph-name="n" unicode="n" horiz-adv-x="547" 
d="M82 0v486h68l7 -70h3q82 82 163 82q148 0 148 -190v-308h-82v297q0 68 -22 99t-70 31q-35 0 -64 -17.5t-69 -57.5v-352h-82z" />
    <glyph glyph-name="o" unicode="o" horiz-adv-x="542" 
d="M271 -12q-94 0 -159.5 69t-65.5 185q0 118 65.5 187t159.5 69t159.5 -69t65.5 -187q0 -116 -65.5 -185t-159.5 -69zM271 56q63 0 101.5 51.5t38.5 134.5q0 84 -38.5 136t-101.5 52q-62 0 -101 -52t-39 -136q0 -83 39 -134.5t101 -51.5z" />
    <glyph glyph-name="p" unicode="p" horiz-adv-x="555" 
d="M82 -205v691h68l7 -56h3q81 68 155 68q92 0 142 -66.5t50 -181.5q0 -119 -61.5 -190.5t-148.5 -71.5q-63 0 -135 56l2 -85v-164h-82zM283 57q61 0 100 52.5t39 140.5q0 179 -128 179q-56 0 -130 -66v-255q61 -51 119 -51z" />
    <glyph glyph-name="q" unicode="q" horiz-adv-x="555" 
d="M390 -205v173l4 88q-70 -68 -146 -68q-93 0 -147 67t-54 187q0 115 62 185.5t149 70.5q72 0 139 -58h2l8 46h66v-691h-83zM266 57q64 0 124 67v254q-57 51 -118 51q-59 0 -99.5 -52t-40.5 -134q0 -87 35.5 -136.5t98.5 -49.5z" />
    <glyph glyph-name="r" unicode="r" horiz-adv-x="347" 
d="M82 0v486h68l7 -88h3q25 47 61 73.5t77 26.5q29 0 52 -10l-16 -72q-26 8 -47 8q-34 0 -67 -27t-56 -85v-312h-82z" />
    <glyph glyph-name="s" unicode="s" horiz-adv-x="419" 
d="M209 -12q-100 0 -181 67l41 55q72 -58 143 -58q46 0 71 21.5t25 54.5q0 18 -9 32t-28 25.5t-33 18t-41 16.5q-32 11 -53 21t-44.5 27t-35.5 40t-12 52q0 60 45 99t122 39q83 0 151 -55l-39 -52q-57 43 -111 43q-43 0 -66 -20t-23 -50q0 -20 16.5 -36.5t31 -23.5t50.5 -20
q7 -3 10 -4q28 -11 43 -17t38.5 -19.5t35.5 -27t21.5 -35t9.5 -48.5q0 -62 -47.5 -103.5t-130.5 -41.5z" />
    <glyph glyph-name="t" unicode="t" horiz-adv-x="338" 
d="M235 -12q-139 0 -139 162v269h-72v62l76 5l10 136h69v-136h131v-67h-131v-270q0 -47 17 -70.5t58 -23.5q20 0 55 13l16 -62q-54 -18 -90 -18z" />
    <glyph glyph-name="u" unicode="u" horiz-adv-x="544" 
d="M224 -12q-149 0 -149 190v308h83v-297q0 -68 21.5 -99t69.5 -31q37 0 66 19t65 63v345h82v-486h-68l-7 76h-3q-75 -88 -160 -88z" />
    <glyph glyph-name="v" unicode="v" horiz-adv-x="467" 
d="M187 0l-175 486h85l92 -276q14 -47 45 -143h4q4 13 20 64t24 79l92 276h81l-172 -486h-96z" />
    <glyph glyph-name="w" unicode="w" horiz-adv-x="718" 
d="M159 0l-135 486h84l72 -281q12 -51 29 -135h4l33 135l75 281h80l76 -281q16 -61 34 -135h4q6 24 30 135l71 281h78l-130 -486h-100l-70 261q-7 26 -17.5 73t-15.5 67h-4q-23 -101 -34 -141l-68 -260h-96z" />
    <glyph glyph-name="x" unicode="x" horiz-adv-x="446" 
d="M14 0l159 254l-147 232h89l65 -107q33 -57 48 -81h4q24 47 44 81l59 107h86l-147 -241l158 -245h-89l-71 113q-30 52 -53 87h-4q-21 -35 -49 -87l-66 -113h-86z" />
    <glyph glyph-name="y" unicode="y" horiz-adv-x="467" 
d="M90 -209q-30 0 -57 10l16 65q23 -7 37 -7q75 0 110 104l11 36l-195 487h85l99 -269q20 -56 47 -137h4q8 26 23 76t18 61l87 269h80l-183 -526q-28 -80 -70.5 -124.5t-111.5 -44.5z" />
    <glyph glyph-name="z" unicode="z" horiz-adv-x="425" 
d="M31 0v44l256 375h-228v67h332v-44l-256 -375h264v-67h-368z" />
    <glyph glyph-name="braceleft" unicode="{" horiz-adv-x="303" 
d="M228 -152q-62 0 -89.5 29t-27.5 104q0 37 4.5 98.5t4.5 94.5q0 77 -86 78v52q86 1 86 77q0 33 -4.5 95t-4.5 99q0 75 27.5 104t89.5 29h45v-47h-27q-39 0 -53.5 -20.5t-14.5 -70.5q0 -30 3 -88t3 -93q0 -49 -14 -74.5t-46 -34.5v-4q32 -9 46 -35t14 -74q0 -35 -3 -93
t-3 -88q0 -50 14.5 -70.5t53.5 -20.5h27v-47h-45z" />
    <glyph glyph-name="bar" unicode="|" horiz-adv-x="241" 
d="M92 -250v1000h58v-1000h-58z" />
    <glyph glyph-name="braceright" unicode="}" horiz-adv-x="303" 
d="M31 -152v47h26q39 0 53.5 20.5t14.5 70.5q0 30 -2.5 88t-2.5 93q0 49 13.5 74.5t45.5 34.5v4q-32 9 -45.5 34.5t-13.5 74.5q0 35 2.5 93t2.5 88q0 50 -14.5 70.5t-53.5 20.5h-26v47h44q62 0 89.5 -29t27.5 -104q0 -37 -4.5 -99t-4.5 -95t20 -54.5t66 -22.5v-52
q-86 -1 -86 -78q0 -33 4.5 -94.5t4.5 -98.5q0 -75 -27.5 -104t-89.5 -29h-44z" />
    <glyph glyph-name="asciitilde" unicode="~" horiz-adv-x="497" 
d="M336 257q-34 0 -66 21t-60 42t-51 21q-44 0 -77 -61l-46 33q51 90 125 90q34 0 66 -21t60 -42t51 -21q44 0 77 61l46 -34q-51 -89 -125 -89z" />
    <glyph glyph-name="uni00A0" unicode="&#xa0;" horiz-adv-x="202" 
 />
    <glyph glyph-name="exclamdown" unicode="&#xa1;" horiz-adv-x="289" 
d="M103 -184l2 94l11 378h57l11 -378l2 -94h-83zM145 372q-25 0 -42.5 18t-17.5 46q0 27 17.5 44.5t42.5 17.5q24 0 41.5 -17.5t17.5 -44.5q0 -28 -17 -46t-42 -18z" />
    <glyph glyph-name="cent" unicode="&#xa2;" horiz-adv-x="497" 
d="M143 310q0 -67 31.5 -111t87.5 -57v335q-55 -13 -87 -57t-32 -110zM262 -33v104q-92 11 -146.5 73.5t-54.5 165.5q0 100 56.5 162t144.5 75v106h52v-103q73 -4 131 -58l-40 -52q-44 39 -91 42v-344q56 4 104 47l36 -52q-64 -57 -140 -63v-103h-52z" />
    <glyph glyph-name="sterling" unicode="&#xa3;" horiz-adv-x="497" 
d="M54 0v50q50 27 78 75t28 105q0 24 -7 55h-100v52l67 4h18q-27 87 -27 125q0 84 51 134t135 50q94 0 155 -75l-48 -47q-43 53 -101 53q-53 0 -82 -32t-29 -85q0 -39 24 -123h159v-56h-146q5 -30 5 -56q0 -90 -62 -154v-4h281v-71h-399z" />
    <glyph glyph-name="currency" unicode="&#xa4;" horiz-adv-x="497" 
d="M70 103l-44 45l64 65q-36 49 -36 116q0 68 36 117l-64 66l44 45l68 -70q48 37 111 37q62 0 110 -37l68 70l44 -45l-65 -66q37 -50 37 -117q0 -66 -37 -116l65 -65l-44 -45l-68 69q-47 -38 -110 -38q-64 0 -111 38zM249 195q49 0 83.5 37.5t34.5 96.5t-34.5 96.5
t-83.5 37.5q-50 0 -84.5 -37.5t-34.5 -96.5t34.5 -96.5t84.5 -37.5z" />
    <glyph glyph-name="yen" unicode="&#xa5;" horiz-adv-x="497" 
d="M207 0v158h-162v48h162v65h-162v47h141l-163 320h86l78 -171q11 -25 32 -72t28 -63h4q13 27 34.5 75.5t26.5 59.5l78 171h84l-164 -320h142v-47h-163v-65h163v-48h-163v-158h-82z" />
    <glyph glyph-name="brokenbar" unicode="&#xa6;" horiz-adv-x="241" 
d="M92 291v459h58v-459h-58zM92 -250v464h58v-464h-58z" />
    <glyph glyph-name="section" unicode="&#xa7;" horiz-adv-x="497" 
d="M117 348q0 -31 21.5 -55t47.5 -36.5t68.5 -31.5t65.5 -32q60 28 60 85q0 26 -12.5 46t-35.5 35t-46.5 25.5t-55.5 24.5t-52 26q-61 -34 -61 -87zM236 -64q-107 0 -173 71l50 45q54 -52 123 -52q39 0 62 20t23 49q0 31 -28.5 54t-69 39.5t-81 36.5t-69 56.5t-28.5 87.5
q0 81 86 129q-32 34 -32 82q0 55 40 92.5t112 37.5q84 0 154 -57l-40 -53q-57 46 -111 46q-40 0 -59.5 -17.5t-19.5 -45.5q0 -25 20.5 -45t51.5 -33t66.5 -30.5t66.5 -36t51.5 -52t20.5 -76.5q0 -81 -85 -129q30 -35 30 -82q0 -59 -45.5 -98t-115.5 -39z" />
    <glyph glyph-name="dieresis" unicode="&#xa8;" horiz-adv-x="542" 
d="M175 587q-22 0 -36 14.5t-14 35.5t14 35.5t36 14.5q21 0 35 -14.5t14 -35.5t-14 -35.5t-35 -14.5zM367 587q-21 0 -35 14.5t-14 35.5t14 35.5t35 14.5q22 0 36 -14.5t14 -35.5t-14 -35.5t-36 -14.5z" />
    <glyph glyph-name="copyright" unicode="&#xa9;" horiz-adv-x="744" 
d="M372 -11q-135 0 -229 92.5t-94 241.5q0 148 94 239t229 91t229 -91t94 -239q0 -149 -94 -241.5t-229 -92.5zM372 31q116 0 196 81.5t80 210.5q0 128 -80 208.5t-196 80.5t-196 -80.5t-80 -208.5q0 -129 80 -210.5t196 -81.5zM380 125q-78 0 -130 53.5t-52 144.5
q0 84 54.5 136.5t130.5 52.5q68 0 125 -57l-35 -39q-43 41 -87 41q-54 0 -88 -37.5t-34 -96.5q0 -66 32.5 -104.5t86.5 -38.5q51 0 102 44l30 -42q-66 -57 -135 -57z" />
    <glyph glyph-name="ordfeminine" unicode="&#xaa;" horiz-adv-x="345" 
d="M136 387q-44 0 -71.5 25.5t-27.5 68.5q0 52 47.5 80t151.5 39q-2 73 -62 73q-47 0 -101 -34l-23 43q69 42 133 42q115 0 115 -133v-196h-50l-7 37h-4q-51 -45 -101 -45zM154 436q39 0 82 40v85q-138 -15 -138 -75q0 -50 56 -50z" />
    <glyph glyph-name="guillemotleft" unicode="&#xab;" horiz-adv-x="429" 
d="M181 66l-136 155v62l136 155l36 -30l-118 -156l118 -158zM339 66l-136 155v62l136 155l36 -30l-118 -156l118 -158z" />
    <glyph glyph-name="logicalnot" unicode="&#xac;" horiz-adv-x="497" 
d="M397 104v195h-363v62h429v-257h-66z" />
    <glyph glyph-name="uni00AD" unicode="&#xad;" horiz-adv-x="311" 
d="M41 219v63h230v-63h-230z" />
    <glyph glyph-name="registered" unicode="&#xae;" horiz-adv-x="423" 
d="M211 319q-79 0 -133.5 55.5t-54.5 141.5t54.5 141.5t133.5 55.5t134 -55.5t55 -141.5t-55 -141.5t-134 -55.5zM211 356q64 0 106.5 45t42.5 115t-42.5 115.5t-106.5 45.5q-63 0 -105.5 -45.5t-42.5 -115.5q0 -71 42 -115.5t106 -44.5zM139 417v203h76q78 0 78 -65
q0 -18 -10.5 -33.5t-26.5 -21.5l46 -83h-46l-35 70h-41v-70h-41zM180 519h26q43 0 43 34q0 33 -41 33h-28v-67z" />
    <glyph glyph-name="macron" unicode="&#xaf;" horiz-adv-x="542" 
d="M138 601v57h266v-57h-266z" />
    <glyph glyph-name="degree" unicode="&#xb0;" horiz-adv-x="331" 
d="M166 429q-52 0 -88.5 35.5t-36.5 91.5q0 58 36.5 93.5t88.5 35.5t88.5 -35.5t36.5 -93.5q0 -56 -36.5 -91.5t-88.5 -35.5zM166 475q33 0 54 23t21 58q0 37 -21 60t-54 23t-54 -23t-21 -60q0 -35 21 -58t54 -23z" />
    <glyph glyph-name="plusminus" unicode="&#xb1;" horiz-adv-x="497" 
d="M216 127v177h-182v62h182v190h65v-190h182v-62h-182v-177h-65zM34 0v62h429v-62h-429z" />
    <glyph glyph-name="two.sups" unicode="&#xb2;" horiz-adv-x="367" 
d="M52 395v37q104 93 144.5 140.5t40.5 88.5q0 38 -20 60t-55 22q-45 0 -84 -57l-38 35q51 76 130 76q60 0 95 -33t35 -93q0 -27 -9 -52t-34.5 -57t-42 -50t-59.5 -62h165v-55h-268z" />
    <glyph glyph-name="three.sups" unicode="&#xb3;" horiz-adv-x="367" 
d="M180 383q-93 0 -145 76l43 33q39 -58 99 -58q33 0 55.5 19t22.5 51q0 33 -31.5 51t-89.5 18v41q49 0 77.5 19.5t28.5 50.5q0 28 -19.5 45t-51.5 17q-41 0 -79 -47l-39 34q56 64 128 64q52 0 88 -28.5t36 -76.5q0 -64 -68 -96q36 -9 60 -34t24 -62q0 -53 -40 -85t-99 -32z
" />
    <glyph glyph-name="acute" unicode="&#xb4;" horiz-adv-x="542" 
d="M257 573l-42 41l141 167l58 -55z" />
    <glyph glyph-name="uni00B5" unicode="&#xb5;" horiz-adv-x="562" 
d="M82 -179v665h82v-297q0 -130 89 -130q37 0 67.5 19.5t61.5 75.5v332h83q-1 -44 -2.5 -126.5t-2.5 -147.5t-1 -117q0 -39 36 -39q13 0 29 6l11 -62q-24 -12 -58 -12q-41 0 -62 22.5t-26 71.5h-2q-52 -92 -135 -92q-66 0 -94 47q1 -129 7 -216h-83z" />
    <glyph glyph-name="paragraph" unicode="&#xb6;" horiz-adv-x="560" 
d="M380 -80v736h84v-736h-84zM293 226q-115 0 -183.5 54t-68.5 163q0 112 65 162.5t176 50.5h44v-430h-33z" />
    <glyph glyph-name="periodcentered" unicode="&#xb7;" horiz-adv-x="249" 
d="M125 259q-25 0 -42.5 17.5t-17.5 44.5q0 28 17.5 46t42.5 18t42 -18t17 -46q0 -27 -17.5 -44.5t-41.5 -17.5z" />
    <glyph glyph-name="cedilla" unicode="&#xb8;" horiz-adv-x="542" 
d="M190 -226l-8 40q61 4 85 16t24 34q0 20 -17.5 31t-59.5 17l44 91h53l-29 -67q73 -17 73 -71q0 -83 -165 -91z" />
    <glyph glyph-name="one.sups" unicode="&#xb9;" horiz-adv-x="367" 
d="M172 395v308h-85v42q57 10 97 40h52v-390h-64z" />
    <glyph glyph-name="ordmasculine" unicode="&#xba;" horiz-adv-x="365" 
d="M182 387q-65 0 -108.5 45.5t-43.5 122.5q0 78 43.5 123.5t108.5 45.5q64 0 108 -45.5t44 -123.5q0 -77 -44 -122.5t-108 -45.5zM182 438q41 0 64.5 32.5t23.5 84.5q0 54 -23.5 86t-64.5 32t-65 -32t-24 -86q0 -52 24 -84.5t65 -32.5z" />
    <glyph glyph-name="guillemotright" unicode="&#xbb;" horiz-adv-x="429" 
d="M89 66l-35 28l118 158l-118 156l35 30l137 -155v-62zM247 66l-35 28l118 158l-118 156l35 30l137 -155v-62z" />
    <glyph glyph-name="onequarter" unicode="&#xbc;" horiz-adv-x="781" 
d="M148 266v308h-85v42q57 10 97 40h52v-390h-64zM180 -12l362 680h56l-362 -680h-56zM633 0v104h-178v33l164 253h72v-240h58v-46h-58v-104h-58zM522 150h111v70l4 109h-4l-50 -81z" />
    <glyph glyph-name="onehalf" unicode="&#xbd;" horiz-adv-x="808" 
d="M148 266v308h-85v42q57 10 97 40h52v-390h-64zM160 -12l362 680h56l-362 -680h-56zM493 0v37q104 93 144.5 140.5t40.5 88.5q0 38 -20 60t-55 22q-45 0 -84 -57l-38 35q51 76 130 76q60 0 95 -33t35 -93q0 -27 -9 -52t-34.5 -57t-42 -50t-59.5 -62h165v-55h-268z" />
    <glyph glyph-name="threequarters" unicode="&#xbe;" horiz-adv-x="796" 
d="M179 254q-93 0 -145 76l43 33q39 -58 99 -58q33 0 55.5 18.5t22.5 51.5t-31.5 51t-89.5 18v41q49 0 77.5 19.5t28.5 50.5q0 28 -19.5 45t-51.5 17q-41 0 -79 -47l-39 34q56 64 128 64q52 0 88 -28.5t36 -76.5q0 -64 -68 -96q36 -9 60 -34t24 -62q0 -53 -40 -85t-99 -32z
M218 -12l362 680h56l-362 -680h-56zM648 0v104h-178v33l164 253h72v-240h58v-46h-58v-104h-58zM537 150h111v70l4 109h-4l-50 -81z" />
    <glyph glyph-name="questiondown" unicode="&#xbf;" horiz-adv-x="425" 
d="M215 -196q-76 0 -121.5 43t-45.5 117q0 36 16.5 70t39 61t45 55t35.5 63.5t8 74.5h73q6 -43 -5.5 -82t-33 -68t-43.5 -55t-38.5 -55.5t-16.5 -58.5q0 -42 25 -69t72 -27q65 0 114 57l48 -43q-76 -83 -172 -83zM227 372q-25 0 -42.5 18t-17.5 46q0 27 17.5 44.5t42.5 17.5
q24 0 41.5 -17.5t17.5 -44.5q0 -28 -17 -46t-42 -18z" />
    <glyph glyph-name="Agrave" unicode="&#xc0;" horiz-adv-x="544" 
d="M203 367l-31 -100h197l-31 100q-31 94 -66 221h-4q-31 -117 -65 -221zM3 0l222 656h94l222 -656h-89l-62 200h-239l-63 -200h-85zM287 697l-152 115l47 55l142 -128z" />
    <glyph glyph-name="Aacute" unicode="&#xc1;" horiz-adv-x="544" 
d="M203 367l-31 -100h197l-31 100q-31 94 -66 221h-4q-31 -117 -65 -221zM3 0l222 656h94l222 -656h-89l-62 200h-239l-63 -200h-85zM253 697l-37 42l142 128l47 -55z" />
    <glyph glyph-name="Acircumflex" unicode="&#xc2;" horiz-adv-x="544" 
d="M203 367l-31 -100h197l-31 100q-31 94 -66 221h-4q-31 -117 -65 -221zM3 0l222 656h94l222 -656h-89l-62 200h-239l-63 -200h-85zM122 725l105 113h86l105 -113l-36 -26l-110 93h-4l-110 -93z" />
    <glyph glyph-name="Atilde" unicode="&#xc3;" horiz-adv-x="544" 
d="M203 367l-31 -100h197l-31 100q-31 94 -66 221h-4q-31 -117 -65 -221zM3 0l222 656h94l222 -656h-89l-62 200h-239l-63 -200h-85zM345 709q-32 0 -59 17.5t-48.5 35.5t-40.5 18t-32 -17t-16 -49l-56 4q3 57 30 90t72 33q32 0 59 -17.5t48.5 -35.5t40.5 -18q40 0 48 66
l56 -4q-3 -58 -30 -90.5t-72 -32.5z" />
    <glyph glyph-name="Adieresis" unicode="&#xc4;" horiz-adv-x="544" 
d="M203 367l-31 -100h197l-31 100q-31 94 -66 221h-4q-31 -117 -65 -221zM3 0l222 656h94l222 -656h-89l-62 200h-239l-63 -200h-85zM167 715q-21 0 -35 14t-14 35q0 22 14 35.5t35 13.5q22 0 35.5 -13.5t13.5 -35.5q0 -21 -13.5 -35t-35.5 -14zM373 715q-22 0 -35.5 14
t-13.5 35q0 22 13.5 35.5t35.5 13.5q21 0 35 -13.5t14 -35.5q0 -21 -14 -35t-35 -14z" />
    <glyph glyph-name="Aring" unicode="&#xc5;" horiz-adv-x="544" 
d="M203 367l-31 -100h197l-31 100q-31 94 -66 221h-4q-31 -117 -65 -221zM3 0l222 656h94l222 -656h-89l-62 200h-239l-63 -200h-85zM270 699q-42 0 -69.5 25t-27.5 65q0 41 27.5 66t69.5 25t69.5 -25t27.5 -66q0 -40 -27.5 -65t-69.5 -25zM270 735q21 0 36 14.5t15 39.5
t-15 39.5t-36 14.5q-22 0 -37 -14.5t-15 -39.5t14.5 -39.5t37.5 -14.5z" />
    <glyph glyph-name="AE" unicode="&#xc6;" horiz-adv-x="822" 
d="M290 376l-61 -118h172v332h-4q-53 -107 -107 -214zM8 0l344 656h411v-70h-278v-206h232v-71h-232v-238h288v-71h-372v191h-206l-99 -191h-88z" />
    <glyph glyph-name="Ccedilla" unicode="&#xc7;" horiz-adv-x="571" 
d="M256 -226l-8 40q61 4 85 16t24 34q0 20 -17.5 31t-59.5 17l37 77q-118 8 -191.5 98.5t-73.5 240.5q0 155 81.5 247.5t209.5 92.5q108 0 180 -81l-45 -54q-59 62 -134 62q-93 0 -149.5 -71.5t-56.5 -193.5q0 -124 55 -196.5t148 -72.5q84 0 152 74l46 -52
q-71 -82 -168 -93l-23 -54q73 -17 73 -71q0 -83 -165 -91z" />
    <glyph glyph-name="Egrave" unicode="&#xc8;" horiz-adv-x="527" 
d="M90 0v656h378v-70h-295v-206h249v-71h-249v-238h305v-71h-388zM301 697l-152 115l47 55l142 -128z" />
    <glyph glyph-name="Eacute" unicode="&#xc9;" horiz-adv-x="527" 
d="M90 0v656h378v-70h-295v-206h249v-71h-249v-238h305v-71h-388zM267 697l-37 42l142 128l47 -55z" />
    <glyph glyph-name="Ecircumflex" unicode="&#xca;" horiz-adv-x="527" 
d="M90 0v656h378v-70h-295v-206h249v-71h-249v-238h305v-71h-388zM136 725l105 113h86l105 -113l-36 -26l-110 93h-4l-110 -93z" />
    <glyph glyph-name="Edieresis" unicode="&#xcb;" horiz-adv-x="527" 
d="M90 0v656h378v-70h-295v-206h249v-71h-249v-238h305v-71h-388zM181 715q-21 0 -35 14t-14 35q0 22 14 35.5t35 13.5q22 0 35.5 -13.5t13.5 -35.5q0 -21 -13.5 -35t-35.5 -14zM387 715q-22 0 -35.5 14t-13.5 35q0 22 13.5 35.5t35.5 13.5q21 0 35 -13.5t14 -35.5
q0 -21 -14 -35t-35 -14z" />
    <glyph glyph-name="Igrave" unicode="&#xcc;" horiz-adv-x="263" 
d="M90 0v656h83v-656h-83zM148 697l-152 115l47 55l142 -128z" />
    <glyph glyph-name="Iacute" unicode="&#xcd;" horiz-adv-x="263" 
d="M90 0v656h83v-656h-83zM114 697l-37 42l142 128l47 -55z" />
    <glyph glyph-name="Icircumflex" unicode="&#xce;" horiz-adv-x="263" 
d="M90 0v656h83v-656h-83zM-17 725l105 113h86l105 -113l-36 -26l-110 93h-4l-110 -93z" />
    <glyph glyph-name="Idieresis" unicode="&#xcf;" horiz-adv-x="263" 
d="M90 0v656h83v-656h-83zM28 715q-21 0 -35 14t-14 35q0 22 14 35.5t35 13.5q22 0 35.5 -13.5t13.5 -35.5q0 -21 -13.5 -35t-35.5 -14zM234 715q-22 0 -35.5 14t-13.5 35q0 22 13.5 35.5t35.5 13.5q21 0 35 -13.5t14 -35.5q0 -21 -14 -35t-35 -14z" />
    <glyph glyph-name="Eth" unicode="&#xd0;" horiz-adv-x="638" 
d="M33 321v43l79 4v288h164q151 0 230.5 -84t79.5 -241q0 -158 -79 -244.5t-227 -86.5h-168v321h-79zM195 68h75q113 0 171.5 68.5t58.5 194.5q0 125 -58 191t-172 66h-75v-220h149v-47h-149v-253z" />
    <glyph glyph-name="Ntilde" unicode="&#xd1;" horiz-adv-x="647" 
d="M90 0v656h86l237 -412l71 -136h4q-10 165 -10 209v339h79v-656h-86l-238 413l-71 135h-4q11 -145 11 -205v-343h-79zM402 709q-32 0 -59 17.5t-48.5 35.5t-40.5 18t-32 -17t-16 -49l-56 4q3 57 30 90t72 33q32 0 59 -17.5t48.5 -35.5t40.5 -18q40 0 48 66l56 -4
q-3 -58 -30 -90.5t-72 -32.5z" />
    <glyph glyph-name="Ograve" unicode="&#xd2;" horiz-adv-x="664" 
d="M332 -12q-125 0 -202.5 93t-77.5 250q0 155 77.5 246t202.5 91t203 -91t78 -246q0 -157 -78 -250t-203 -93zM332 61q88 0 141 73.5t53 196.5q0 122 -53 193t-141 71t-141 -71t-53 -193q0 -123 53 -196.5t141 -73.5zM349 697l-152 115l47 55l142 -128z" />
    <glyph glyph-name="Oacute" unicode="&#xd3;" horiz-adv-x="664" 
d="M332 -12q-125 0 -202.5 93t-77.5 250q0 155 77.5 246t202.5 91t203 -91t78 -246q0 -157 -78 -250t-203 -93zM332 61q88 0 141 73.5t53 196.5q0 122 -53 193t-141 71t-141 -71t-53 -193q0 -123 53 -196.5t141 -73.5zM315 697l-37 42l142 128l47 -55z" />
    <glyph glyph-name="Ocircumflex" unicode="&#xd4;" horiz-adv-x="664" 
d="M332 -12q-125 0 -202.5 93t-77.5 250q0 155 77.5 246t202.5 91t203 -91t78 -246q0 -157 -78 -250t-203 -93zM332 61q88 0 141 73.5t53 196.5q0 122 -53 193t-141 71t-141 -71t-53 -193q0 -123 53 -196.5t141 -73.5zM184 725l105 113h86l105 -113l-36 -26l-110 93h-4
l-110 -93z" />
    <glyph glyph-name="Otilde" unicode="&#xd5;" horiz-adv-x="664" 
d="M332 -12q-125 0 -202.5 93t-77.5 250q0 155 77.5 246t202.5 91t203 -91t78 -246q0 -157 -78 -250t-203 -93zM332 61q88 0 141 73.5t53 196.5q0 122 -53 193t-141 71t-141 -71t-53 -193q0 -123 53 -196.5t141 -73.5zM407 709q-32 0 -59 17.5t-48.5 35.5t-40.5 18t-32 -17
t-16 -49l-56 4q3 57 30 90t72 33q32 0 59 -17.5t48.5 -35.5t40.5 -18q40 0 48 66l56 -4q-3 -58 -30 -90.5t-72 -32.5z" />
    <glyph glyph-name="Odieresis" unicode="&#xd6;" horiz-adv-x="664" 
d="M332 -12q-125 0 -202.5 93t-77.5 250q0 155 77.5 246t202.5 91t203 -91t78 -246q0 -157 -78 -250t-203 -93zM332 61q88 0 141 73.5t53 196.5q0 122 -53 193t-141 71t-141 -71t-53 -193q0 -123 53 -196.5t141 -73.5zM229 715q-21 0 -35 14t-14 35q0 22 14 35.5t35 13.5
q22 0 35.5 -13.5t13.5 -35.5q0 -21 -13.5 -35t-35.5 -14zM435 715q-22 0 -35.5 14t-13.5 35q0 22 13.5 35.5t35.5 13.5q21 0 35 -13.5t14 -35.5q0 -21 -14 -35t-35 -14z" />
    <glyph glyph-name="multiply" unicode="&#xd7;" horiz-adv-x="497" 
d="M94 126l-44 45l155 159l-155 158l44 45l155 -159l154 159l44 -45l-155 -158l155 -159l-44 -45l-154 160z" />
    <glyph glyph-name="Oslash" unicode="&#xd8;" horiz-adv-x="664" 
d="M335 -12q-104 0 -175 65l-64 -83l-46 36l70 91q-65 94 -65 234q0 155 77.5 246t202.5 91q104 0 176 -63l62 81l46 -35l-69 -89q66 -91 66 -231q0 -157 -78 -250t-203 -93zM141 331q0 -95 33 -163l288 373q-51 54 -127 54q-88 0 -141 -71t-53 -193zM335 61q88 0 141 73.5
t53 196.5q0 94 -33 160l-287 -374q50 -56 126 -56z" />
    <glyph glyph-name="Ugrave" unicode="&#xd9;" horiz-adv-x="645" 
d="M323 -12q-109 0 -172.5 67t-63.5 216v385h83v-387q0 -208 153 -208q155 0 155 208v387h80v-385q0 -283 -235 -283zM340 697l-152 115l47 55l142 -128z" />
    <glyph glyph-name="Uacute" unicode="&#xda;" horiz-adv-x="645" 
d="M323 -12q-109 0 -172.5 67t-63.5 216v385h83v-387q0 -208 153 -208q155 0 155 208v387h80v-385q0 -283 -235 -283zM306 697l-37 42l142 128l47 -55z" />
    <glyph glyph-name="Ucircumflex" unicode="&#xdb;" horiz-adv-x="645" 
d="M323 -12q-109 0 -172.5 67t-63.5 216v385h83v-387q0 -208 153 -208q155 0 155 208v387h80v-385q0 -283 -235 -283zM175 725l105 113h86l105 -113l-36 -26l-110 93h-4l-110 -93z" />
    <glyph glyph-name="Udieresis" unicode="&#xdc;" horiz-adv-x="645" 
d="M323 -12q-109 0 -172.5 67t-63.5 216v385h83v-387q0 -208 153 -208q155 0 155 208v387h80v-385q0 -283 -235 -283zM220 715q-21 0 -35 14t-14 35q0 22 14 35.5t35 13.5q22 0 35.5 -13.5t13.5 -35.5q0 -21 -13.5 -35t-35.5 -14zM426 715q-22 0 -35.5 14t-13.5 35
q0 22 13.5 35.5t35.5 13.5q21 0 35 -13.5t14 -35.5q0 -21 -14 -35t-35 -14z" />
    <glyph glyph-name="Yacute" unicode="&#xdd;" horiz-adv-x="476" 
d="M196 0v254l-197 402h89l85 -185q46 -105 63 -143h4q57 122 66 143l84 185h87l-197 -402v-254h-84zM221 697l-37 42l142 128l47 -55z" />
    <glyph glyph-name="Thorn" unicode="&#xde;" horiz-adv-x="583" 
d="M90 0v656h83v-110h118q242 0 242 -193q0 -101 -65 -152t-177 -51h-118v-150h-83zM173 218h108q86 0 127.5 32.5t41.5 102.5q0 69 -40.5 97t-128.5 28h-108v-260z" />
    <glyph glyph-name="germandbls" unicode="&#xdf;" horiz-adv-x="576" 
d="M387 -12q-74 0 -141 49l33 58q52 -43 106 -43q39 0 61.5 23.5t22.5 56.5q0 32 -20.5 55t-49.5 37.5t-57.5 30.5t-49 43.5t-20.5 65.5q0 30 14 58t30 46.5t30 45t14 54.5q0 39 -21.5 63t-61.5 24q-54 0 -83.5 -39.5t-29.5 -115.5v-500h-82v515q0 95 51.5 151t144.5 56
q76 0 119.5 -42t43.5 -104q0 -34 -14 -64t-31.5 -48.5t-31.5 -42.5t-14 -47q0 -26 20.5 -45.5t49.5 -34t57.5 -31.5t49 -49t20.5 -77q0 -64 -43.5 -106.5t-116.5 -42.5z" />
    <glyph glyph-name="agrave" unicode="&#xe0;" horiz-adv-x="504" 
d="M194 -12q-62 0 -102 37t-40 101q0 79 71 122t227 60q0 122 -100 122q-69 0 -145 -52l-32 57q98 63 191 63q86 0 127.5 -52.5t41.5 -147.5v-298h-68l-7 58h-3q-85 -70 -161 -70zM218 54q59 0 132 65v135q-118 -15 -168 -44.5t-50 -77.5q0 -39 24 -58.5t62 -19.5zM277 573
l-157 153l58 55l141 -167z" />
    <glyph glyph-name="aacute" unicode="&#xe1;" horiz-adv-x="504" 
d="M194 -12q-62 0 -102 37t-40 101q0 79 71 122t227 60q0 122 -100 122q-69 0 -145 -52l-32 57q98 63 191 63q86 0 127.5 -52.5t41.5 -147.5v-298h-68l-7 58h-3q-85 -70 -161 -70zM218 54q59 0 132 65v135q-118 -15 -168 -44.5t-50 -77.5q0 -39 24 -58.5t62 -19.5zM249 573
l-42 41l141 167l58 -55z" />
    <glyph glyph-name="acircumflex" unicode="&#xe2;" horiz-adv-x="504" 
d="M194 -12q-62 0 -102 37t-40 101q0 79 71 122t227 60q0 122 -100 122q-69 0 -145 -52l-32 57q98 63 191 63q86 0 127.5 -52.5t41.5 -147.5v-298h-68l-7 58h-3q-85 -70 -161 -70zM218 54q59 0 132 65v135q-118 -15 -168 -44.5t-50 -77.5q0 -39 24 -58.5t62 -19.5zM108 600
l114 140h82l114 -140l-35 -32l-118 113h-4l-118 -113z" />
    <glyph glyph-name="atilde" unicode="&#xe3;" horiz-adv-x="504" 
d="M194 -12q-62 0 -102 37t-40 101q0 79 71 122t227 60q0 122 -100 122q-69 0 -145 -52l-32 57q98 63 191 63q86 0 127.5 -52.5t41.5 -147.5v-298h-68l-7 58h-3q-85 -70 -161 -70zM218 54q59 0 132 65v135q-118 -15 -168 -44.5t-50 -77.5q0 -39 24 -58.5t62 -19.5zM335 577
q-30 0 -56 21t-47.5 42t-39.5 21q-42 0 -47 -79l-55 3q2 62 27 99t74 37q30 0 56 -21t47.5 -42t40.5 -21q41 0 46 79l55 -4q-2 -62 -27 -98.5t-74 -36.5z" />
    <glyph glyph-name="adieresis" unicode="&#xe4;" horiz-adv-x="504" 
d="M194 -12q-62 0 -102 37t-40 101q0 79 71 122t227 60q0 122 -100 122q-69 0 -145 -52l-32 57q98 63 191 63q86 0 127.5 -52.5t41.5 -147.5v-298h-68l-7 58h-3q-85 -70 -161 -70zM218 54q59 0 132 65v135q-118 -15 -168 -44.5t-50 -77.5q0 -39 24 -58.5t62 -19.5zM167 587
q-22 0 -36 14.5t-14 35.5t14 35.5t36 14.5q21 0 35 -14.5t14 -35.5t-14 -35.5t-35 -14.5zM359 587q-21 0 -35 14.5t-14 35.5t14 35.5t35 14.5q22 0 36 -14.5t14 -35.5t-14 -35.5t-36 -14.5z" />
    <glyph glyph-name="aring" unicode="&#xe5;" horiz-adv-x="504" 
d="M194 -12q-62 0 -102 37t-40 101q0 79 71 122t227 60q0 122 -100 122q-69 0 -145 -52l-32 57q98 63 191 63q86 0 127.5 -52.5t41.5 -147.5v-298h-68l-7 58h-3q-85 -70 -161 -70zM218 54q59 0 132 65v135q-118 -15 -168 -44.5t-50 -77.5q0 -39 24 -58.5t62 -19.5zM263 554
q-50 0 -80 28t-30 71t30 70.5t80 27.5t80 -27.5t30 -70.5t-30 -71t-80 -28zM263 591q25 0 41 17t16 45q0 27 -16.5 44t-40.5 17t-40.5 -17t-16.5 -44q0 -28 16 -45t41 -17z" />
    <glyph glyph-name="ae" unicode="&#xe6;" horiz-adv-x="785" 
d="M201 -12q-63 0 -103 37t-40 101q0 79 70.5 122t223.5 60q0 122 -99 122q-65 0 -141 -52l-33 57q98 63 184 63q106 0 139 -103q62 103 160 103q88 0 136.5 -61.5t48.5 -167.5q0 -28 -3 -46h-315q3 -75 45.5 -121.5t105.5 -46.5q55 0 118 40l30 -57q-78 -50 -158 -50
q-101 0 -171 91q-102 -91 -198 -91zM224 54q35 0 75 20t72 55q-17 39 -19 100v25q-113 -15 -163 -44.5t-50 -77.5q0 -39 23.5 -58.5t61.5 -19.5zM429 278h246q0 75 -29.5 115t-85.5 40q-51 0 -87.5 -42.5t-43.5 -112.5z" />
    <glyph glyph-name="ccedilla" unicode="&#xe7;" horiz-adv-x="456" 
d="M185 -226l-8 40q61 4 85 16t24 34q0 20 -17.5 31t-59.5 17l37 77q-89 10 -144.5 77t-55.5 176q0 118 68 187t166 69q79 0 142 -57l-42 -54q-48 43 -97 43q-66 0 -109 -52.5t-43 -135.5t41.5 -134.5t108.5 -51.5q60 0 114 49l36 -55q-59 -52 -131 -60l-23 -54
q73 -17 73 -71q0 -83 -165 -91z" />
    <glyph glyph-name="egrave" unicode="&#xe8;" horiz-adv-x="496" 
d="M279 -12q-100 0 -166.5 69t-66.5 185q0 114 65 185t153 71q92 0 143 -61.5t51 -166.5q0 -29 -3 -47h-328q5 -77 48.5 -123t113.5 -46q62 0 121 38l29 -54q-78 -50 -160 -50zM126 282h260q0 73 -31.5 112t-88.5 39q-53 0 -93 -40.5t-47 -110.5zM278 573l-157 153l58 55
l141 -167z" />
    <glyph glyph-name="eacute" unicode="&#xe9;" horiz-adv-x="496" 
d="M279 -12q-100 0 -166.5 69t-66.5 185q0 114 65 185t153 71q92 0 143 -61.5t51 -166.5q0 -29 -3 -47h-328q5 -77 48.5 -123t113.5 -46q62 0 121 38l29 -54q-78 -50 -160 -50zM126 282h260q0 73 -31.5 112t-88.5 39q-53 0 -93 -40.5t-47 -110.5zM250 573l-42 41l141 167
l58 -55z" />
    <glyph glyph-name="ecircumflex" unicode="&#xea;" horiz-adv-x="496" 
d="M279 -12q-100 0 -166.5 69t-66.5 185q0 114 65 185t153 71q92 0 143 -61.5t51 -166.5q0 -29 -3 -47h-328q5 -77 48.5 -123t113.5 -46q62 0 121 38l29 -54q-78 -50 -160 -50zM126 282h260q0 73 -31.5 112t-88.5 39q-53 0 -93 -40.5t-47 -110.5zM109 600l114 140h82
l114 -140l-35 -32l-118 113h-4l-118 -113z" />
    <glyph glyph-name="edieresis" unicode="&#xeb;" horiz-adv-x="496" 
d="M279 -12q-100 0 -166.5 69t-66.5 185q0 114 65 185t153 71q92 0 143 -61.5t51 -166.5q0 -29 -3 -47h-328q5 -77 48.5 -123t113.5 -46q62 0 121 38l29 -54q-78 -50 -160 -50zM126 282h260q0 73 -31.5 112t-88.5 39q-53 0 -93 -40.5t-47 -110.5zM168 587q-22 0 -36 14.5
t-14 35.5t14 35.5t36 14.5q21 0 35 -14.5t14 -35.5t-14 -35.5t-35 -14.5zM360 587q-21 0 -35 14.5t-14 35.5t14 35.5t35 14.5q22 0 36 -14.5t14 -35.5t-14 -35.5t-36 -14.5z" />
    <glyph glyph-name="igrave" unicode="&#xec;" horiz-adv-x="246" 
d="M82 0v486h82v-486h-82zM137 573l-157 153l58 55l141 -167z" />
    <glyph glyph-name="iacute" unicode="&#xed;" horiz-adv-x="246" 
d="M82 0v486h82v-486h-82zM109 573l-42 41l141 167l58 -55z" />
    <glyph glyph-name="icircumflex" unicode="&#xee;" horiz-adv-x="246" 
d="M82 0v486h82v-486h-82zM-32 600l114 140h82l114 -140l-35 -32l-118 113h-4l-118 -113z" />
    <glyph glyph-name="idieresis" unicode="&#xef;" horiz-adv-x="246" 
d="M82 0v486h82v-486h-82zM27 587q-22 0 -36 14.5t-14 35.5t14 35.5t36 14.5q21 0 35 -14.5t14 -35.5t-14 -35.5t-35 -14.5zM219 587q-21 0 -35 14.5t-14 35.5t14 35.5t35 14.5q22 0 36 -14.5t14 -35.5t-14 -35.5t-36 -14.5z" />
    <glyph glyph-name="eth" unicode="&#xf0;" horiz-adv-x="545" 
d="M269 -12q-89 0 -152.5 64.5t-63.5 169.5q0 100 58.5 162.5t147.5 62.5q84 0 134 -66q-24 111 -107 192l-141 -73l-24 41l127 65q-52 40 -112 72l38 52q83 -45 138 -91l142 73l24 -41l-129 -66q136 -138 136 -348q0 -120 -59.5 -194.5t-156.5 -74.5zM271 56
q66 0 100.5 53.5t34.5 144.5q0 21 -2 55q-55 74 -133 74q-65 0 -102.5 -45t-37.5 -116q0 -73 41 -119.5t99 -46.5z" />
    <glyph glyph-name="ntilde" unicode="&#xf1;" horiz-adv-x="547" 
d="M82 0v486h68l7 -70h3q82 82 163 82q148 0 148 -190v-308h-82v297q0 68 -22 99t-70 31q-35 0 -64 -17.5t-69 -57.5v-352h-82zM364 577q-30 0 -56 21t-47.5 42t-39.5 21q-42 0 -47 -79l-55 3q2 62 27 99t74 37q30 0 56 -21t47.5 -42t40.5 -21q41 0 46 79l55 -4
q-2 -62 -27 -98.5t-74 -36.5z" />
    <glyph glyph-name="ograve" unicode="&#xf2;" horiz-adv-x="542" 
d="M271 -12q-94 0 -159.5 69t-65.5 185q0 118 65.5 187t159.5 69t159.5 -69t65.5 -187q0 -116 -65.5 -185t-159.5 -69zM271 56q63 0 101.5 51.5t38.5 134.5q0 84 -38.5 136t-101.5 52q-62 0 -101 -52t-39 -136q0 -83 39 -134.5t101 -51.5zM285 573l-157 153l58 55l141 -167z
" />
    <glyph glyph-name="oacute" unicode="&#xf3;" horiz-adv-x="542" 
d="M271 -12q-94 0 -159.5 69t-65.5 185q0 118 65.5 187t159.5 69t159.5 -69t65.5 -187q0 -116 -65.5 -185t-159.5 -69zM271 56q63 0 101.5 51.5t38.5 134.5q0 84 -38.5 136t-101.5 52q-62 0 -101 -52t-39 -136q0 -83 39 -134.5t101 -51.5zM257 573l-42 41l141 167l58 -55z
" />
    <glyph glyph-name="ocircumflex" unicode="&#xf4;" horiz-adv-x="542" 
d="M271 -12q-94 0 -159.5 69t-65.5 185q0 118 65.5 187t159.5 69t159.5 -69t65.5 -187q0 -116 -65.5 -185t-159.5 -69zM271 56q63 0 101.5 51.5t38.5 134.5q0 84 -38.5 136t-101.5 52q-62 0 -101 -52t-39 -136q0 -83 39 -134.5t101 -51.5zM116 600l114 140h82l114 -140
l-35 -32l-118 113h-4l-118 -113z" />
    <glyph glyph-name="otilde" unicode="&#xf5;" horiz-adv-x="542" 
d="M271 -12q-94 0 -159.5 69t-65.5 185q0 118 65.5 187t159.5 69t159.5 -69t65.5 -187q0 -116 -65.5 -185t-159.5 -69zM271 56q63 0 101.5 51.5t38.5 134.5q0 84 -38.5 136t-101.5 52q-62 0 -101 -52t-39 -136q0 -83 39 -134.5t101 -51.5zM343 577q-30 0 -56 21t-47.5 42
t-39.5 21q-42 0 -47 -79l-55 3q2 62 27 99t74 37q30 0 56 -21t47.5 -42t40.5 -21q41 0 46 79l55 -4q-2 -62 -27 -98.5t-74 -36.5z" />
    <glyph glyph-name="odieresis" unicode="&#xf6;" horiz-adv-x="542" 
d="M271 -12q-94 0 -159.5 69t-65.5 185q0 118 65.5 187t159.5 69t159.5 -69t65.5 -187q0 -116 -65.5 -185t-159.5 -69zM271 56q63 0 101.5 51.5t38.5 134.5q0 84 -38.5 136t-101.5 52q-62 0 -101 -52t-39 -136q0 -83 39 -134.5t101 -51.5zM175 587q-22 0 -36 14.5t-14 35.5
t14 35.5t36 14.5q21 0 35 -14.5t14 -35.5t-14 -35.5t-35 -14.5zM367 587q-21 0 -35 14.5t-14 35.5t14 35.5t35 14.5q22 0 36 -14.5t14 -35.5t-14 -35.5t-36 -14.5z" />
    <glyph glyph-name="divide" unicode="&#xf7;" horiz-adv-x="497" 
d="M34 299v62h429v-62h-429zM249 96q-24 0 -39.5 15t-15.5 39q0 23 16 38t39 15t38.5 -15t15.5 -38q0 -24 -15.5 -39t-38.5 -15zM249 456q-24 0 -39.5 15t-15.5 39q0 23 16 38t39 15t38.5 -15t15.5 -38q0 -24 -15.5 -39t-38.5 -15z" />
    <glyph glyph-name="oslash" unicode="&#xf8;" horiz-adv-x="542" 
d="M271 -12q-79 0 -139 49l-49 -60l-37 29l54 65q-54 70 -54 171q0 118 65.5 187t159.5 69q80 0 139 -50l50 61l36 -29l-54 -65q54 -70 54 -173q0 -116 -65.5 -185t-159.5 -69zM127 246q0 -67 23 -113l214 259q-37 40 -93 40q-63 0 -103.5 -52t-40.5 -134zM271 54
q63 0 103.5 51.5t40.5 133.5q0 67 -24 114l-213 -260q39 -39 93 -39z" />
    <glyph glyph-name="ugrave" unicode="&#xf9;" horiz-adv-x="544" 
d="M224 -12q-149 0 -149 190v308h83v-297q0 -68 21.5 -99t69.5 -31q37 0 66 19t65 63v345h82v-486h-68l-7 76h-3q-75 -88 -160 -88zM286 573l-157 153l58 55l141 -167z" />
    <glyph glyph-name="uacute" unicode="&#xfa;" horiz-adv-x="544" 
d="M224 -12q-149 0 -149 190v308h83v-297q0 -68 21.5 -99t69.5 -31q37 0 66 19t65 63v345h82v-486h-68l-7 76h-3q-75 -88 -160 -88zM258 573l-42 41l141 167l58 -55z" />
    <glyph glyph-name="ucircumflex" unicode="&#xfb;" horiz-adv-x="544" 
d="M224 -12q-149 0 -149 190v308h83v-297q0 -68 21.5 -99t69.5 -31q37 0 66 19t65 63v345h82v-486h-68l-7 76h-3q-75 -88 -160 -88zM117 600l114 140h82l114 -140l-35 -32l-118 113h-4l-118 -113z" />
    <glyph glyph-name="udieresis" unicode="&#xfc;" horiz-adv-x="544" 
d="M224 -12q-149 0 -149 190v308h83v-297q0 -68 21.5 -99t69.5 -31q37 0 66 19t65 63v345h82v-486h-68l-7 76h-3q-75 -88 -160 -88zM176 587q-22 0 -36 14.5t-14 35.5t14 35.5t36 14.5q21 0 35 -14.5t14 -35.5t-14 -35.5t-35 -14.5zM368 587q-21 0 -35 14.5t-14 35.5
t14 35.5t35 14.5q22 0 36 -14.5t14 -35.5t-14 -35.5t-36 -14.5z" />
    <glyph glyph-name="yacute" unicode="&#xfd;" horiz-adv-x="467" 
d="M90 -209q-30 0 -57 10l16 65q23 -7 37 -7q75 0 110 104l11 36l-195 487h85l99 -269q20 -56 47 -137h4q8 26 23 76t18 61l87 269h80l-183 -526q-28 -80 -70.5 -124.5t-111.5 -44.5zM229 573l-42 41l141 167l58 -55z" />
    <glyph glyph-name="thorn" unicode="&#xfe;" horiz-adv-x="555" 
d="M82 -205v917h82v-194l-1 -83q80 63 148 63q94 0 145 -66.5t51 -181.5q0 -119 -61.5 -190.5t-148.5 -71.5q-64 0 -134 54l1 -83v-164h-82zM283 57q61 0 100 52.5t39 140.5q0 179 -128 179q-56 0 -130 -66v-255q61 -51 119 -51z" />
    <glyph glyph-name="ydieresis" unicode="&#xff;" horiz-adv-x="467" 
d="M90 -209q-30 0 -57 10l16 65q23 -7 37 -7q75 0 110 104l11 36l-195 487h85l99 -269q20 -56 47 -137h4q8 26 23 76t18 61l87 269h80l-183 -526q-28 -80 -70.5 -124.5t-111.5 -44.5zM147 587q-22 0 -36 14.5t-14 35.5t14 35.5t36 14.5q21 0 35 -14.5t14 -35.5t-14 -35.5
t-35 -14.5zM339 587q-21 0 -35 14.5t-14 35.5t14 35.5t35 14.5q22 0 36 -14.5t14 -35.5t-14 -35.5t-36 -14.5z" />
    <glyph glyph-name="Amacron" unicode="&#x100;" horiz-adv-x="544" 
d="M203 367l-31 -100h197l-31 100q-31 94 -66 221h-4q-31 -117 -65 -221zM3 0l222 656h94l222 -656h-89l-62 200h-239l-63 -200h-85zM136 735v57h268v-57h-268z" />
    <glyph glyph-name="amacron" unicode="&#x101;" horiz-adv-x="504" 
d="M194 -12q-62 0 -102 37t-40 101q0 79 71 122t227 60q0 122 -100 122q-69 0 -145 -52l-32 57q98 63 191 63q86 0 127.5 -52.5t41.5 -147.5v-298h-68l-7 58h-3q-85 -70 -161 -70zM218 54q59 0 132 65v135q-118 -15 -168 -44.5t-50 -77.5q0 -39 24 -58.5t62 -19.5zM130 601
v57h266v-57h-266z" />
    <glyph glyph-name="Abreve" unicode="&#x102;" horiz-adv-x="544" 
d="M203 367l-31 -100h197l-31 100q-31 94 -66 221h-4q-31 -117 -65 -221zM3 0l222 656h94l222 -656h-89l-62 200h-239l-63 -200h-85zM270 705q-66 0 -103 36t-43 93l50 8q6 -37 30.5 -60.5t65.5 -23.5t65.5 23.5t30.5 60.5l50 -8q-6 -57 -43 -93t-103 -36z" />
    <glyph glyph-name="abreve" unicode="&#x103;" horiz-adv-x="504" 
d="M194 -12q-62 0 -102 37t-40 101q0 79 71 122t227 60q0 122 -100 122q-69 0 -145 -52l-32 57q98 63 191 63q86 0 127.5 -52.5t41.5 -147.5v-298h-68l-7 58h-3q-85 -70 -161 -70zM218 54q59 0 132 65v135q-118 -15 -168 -44.5t-50 -77.5q0 -39 24 -58.5t62 -19.5zM263 571
q-74 0 -113 44t-43 107l51 8q7 -43 33.5 -73.5t71.5 -30.5t71.5 30.5t33.5 73.5l51 -8q-4 -63 -43 -107t-113 -44z" />
    <glyph glyph-name="Aogonek" unicode="&#x104;" horiz-adv-x="544" 
d="M492 -212q-42 0 -69 23t-27 64q0 37 22.5 71t52.5 54h-19l-62 200h-239l-63 -200h-85l222 656h94l222 -656q-35 -14 -57.5 -44.5t-22.5 -62.5q0 -22 13.5 -34t32.5 -12q23 0 42 14l23 -45q-37 -28 -80 -28zM203 367l-31 -100h197l-31 100q-31 94 -66 221h-4
q-31 -117 -65 -221z" />
    <glyph glyph-name="aogonek" unicode="&#x105;" horiz-adv-x="504" 
d="M376 -206q-40 0 -65.5 22t-25.5 63q0 37 23.5 70t56.5 55l-7 54h-3q-85 -70 -161 -70q-62 0 -102 37t-40 101q0 79 71 122t227 60q0 122 -100 122q-69 0 -145 -52l-32 57q98 63 191 63q86 0 127.5 -52.5t41.5 -147.5v-298q-41 -16 -64 -45.5t-23 -59.5q0 -22 13.5 -34
t32.5 -12q21 0 41 13l21 -41q-34 -27 -78 -27zM218 54q59 0 132 65v135q-118 -15 -168 -44.5t-50 -77.5q0 -39 24 -58.5t62 -19.5z" />
    <glyph glyph-name="Cacute" unicode="&#x106;" horiz-adv-x="571" 
d="M338 -12q-126 0 -206 91.5t-80 248.5q0 155 81.5 247.5t209.5 92.5q108 0 180 -81l-45 -54q-59 62 -134 62q-93 0 -149.5 -71.5t-56.5 -193.5q0 -124 55 -196.5t148 -72.5q84 0 152 74l46 -52q-82 -95 -201 -95zM313 697l-37 42l142 128l47 -55z" />
    <glyph glyph-name="cacute" unicode="&#x107;" horiz-adv-x="456" 
d="M274 -12q-100 0 -164 68t-64 186t68 187t166 69q79 0 142 -57l-42 -54q-48 43 -97 43q-66 0 -109 -52.5t-43 -135.5t41.5 -134.5t108.5 -51.5q60 0 114 49l36 -55q-70 -62 -157 -62zM265 573l-42 41l141 167l58 -55z" />
    <glyph glyph-name="Ccircumflex" unicode="&#x108;" horiz-adv-x="571" 
d="M338 -12q-126 0 -206 91.5t-80 248.5q0 155 81.5 247.5t209.5 92.5q108 0 180 -81l-45 -54q-59 62 -134 62q-93 0 -149.5 -71.5t-56.5 -193.5q0 -124 55 -196.5t148 -72.5q84 0 152 74l46 -52q-82 -95 -201 -95zM182 725l105 113h86l105 -113l-36 -26l-110 93h-4
l-110 -93z" />
    <glyph glyph-name="ccircumflex" unicode="&#x109;" horiz-adv-x="456" 
d="M274 -12q-100 0 -164 68t-64 186t68 187t166 69q79 0 142 -57l-42 -54q-48 43 -97 43q-66 0 -109 -52.5t-43 -135.5t41.5 -134.5t108.5 -51.5q60 0 114 49l36 -55q-70 -62 -157 -62zM124 600l114 140h82l114 -140l-35 -32l-118 113h-4l-118 -113z" />
    <glyph glyph-name="Cdotaccent" unicode="&#x10a;" horiz-adv-x="571" 
d="M338 -12q-126 0 -206 91.5t-80 248.5q0 155 81.5 247.5t209.5 92.5q108 0 180 -81l-45 -54q-59 62 -134 62q-93 0 -149.5 -71.5t-56.5 -193.5q0 -124 55 -196.5t148 -72.5q84 0 152 74l46 -52q-82 -95 -201 -95zM330 714q-24 0 -40.5 15t-16.5 39q0 23 16.5 38t40.5 15
t40.5 -15t16.5 -38q0 -24 -16.5 -39t-40.5 -15z" />
    <glyph glyph-name="cdotaccent" unicode="&#x10b;" horiz-adv-x="456" 
d="M274 -12q-100 0 -164 68t-64 186t68 187t166 69q79 0 142 -57l-42 -54q-48 43 -97 43q-66 0 -109 -52.5t-43 -135.5t41.5 -134.5t108.5 -51.5q60 0 114 49l36 -55q-70 -62 -157 -62zM279 586q-23 0 -38.5 15t-15.5 39q0 23 15.5 38.5t38.5 15.5t38.5 -15.5t15.5 -38.5
q0 -24 -15.5 -39t-38.5 -15z" />
    <glyph glyph-name="Ccaron" unicode="&#x10c;" horiz-adv-x="571" 
d="M338 -12q-126 0 -206 91.5t-80 248.5q0 155 81.5 247.5t209.5 92.5q108 0 180 -81l-45 -54q-59 62 -134 62q-93 0 -149.5 -71.5t-56.5 -193.5q0 -124 55 -196.5t148 -72.5q84 0 152 74l46 -52q-82 -95 -201 -95zM287 706l-105 113l36 26l110 -92h4l110 92l36 -26
l-105 -113h-86z" />
    <glyph glyph-name="ccaron" unicode="&#x10d;" horiz-adv-x="456" 
d="M274 -12q-100 0 -164 68t-64 186t68 187t166 69q79 0 142 -57l-42 -54q-48 43 -97 43q-66 0 -109 -52.5t-43 -135.5t41.5 -134.5t108.5 -51.5q60 0 114 49l36 -55q-70 -62 -157 -62zM238 574l-114 140l35 32l118 -113h4l118 113l35 -32l-114 -140h-82z" />
    <glyph glyph-name="Dcaron" unicode="&#x10e;" horiz-adv-x="615" 
d="M90 0v656h164q151 0 230.5 -84t79.5 -241q0 -158 -79 -244.5t-227 -86.5h-168zM173 68h75q113 0 171.5 68.5t58.5 194.5q0 125 -58 191t-172 66h-75v-520zM265 706l-105 113l36 26l110 -92h4l110 92l36 -26l-105 -113h-86z" />
    <glyph glyph-name="dcaron" unicode="&#x10f;" horiz-adv-x="573" 
d="M248 -12q-93 0 -147 67t-54 187q0 115 62 185.5t149 70.5q67 0 136 -56l-4 83v187h83v-712h-68l-7 57h-3q-71 -69 -147 -69zM266 57q64 0 124 67v254q-57 51 -118 51q-59 0 -99.5 -52t-40.5 -134q0 -87 35.5 -136.5t98.5 -49.5zM530 548l-4 212h59l-1 -57l-14 -155h-40z
" />
    <glyph glyph-name="Dcroat" unicode="&#x110;" horiz-adv-x="638" 
d="M33 321v43l79 4v288h164q151 0 230.5 -84t79.5 -241q0 -158 -79 -244.5t-227 -86.5h-168v321h-79zM195 68h75q113 0 171.5 68.5t58.5 194.5q0 125 -58 191t-172 66h-75v-220h149v-47h-149v-253z" />
    <glyph glyph-name="dcroat" unicode="&#x111;" horiz-adv-x="555" 
d="M248 -12q-92 0 -146.5 62.5t-54.5 172.5q0 104 62.5 170t148.5 66q66 0 136 -57l-4 84v85h-161v48h161v93h83v-93h72v-43l-72 -5v-571h-70l-6 55h-3q-67 -67 -146 -67zM266 57q64 0 124 67v215q-57 51 -118 51q-59 0 -99.5 -47.5t-40.5 -118.5q0 -77 35.5 -122t98.5 -45z
" />
    <glyph glyph-name="Emacron" unicode="&#x112;" horiz-adv-x="527" 
d="M90 0v656h378v-70h-295v-206h249v-71h-249v-238h305v-71h-388zM150 735v57h268v-57h-268z" />
    <glyph glyph-name="emacron" unicode="&#x113;" horiz-adv-x="496" 
d="M279 -12q-100 0 -166.5 69t-66.5 185q0 114 65 185t153 71q92 0 143 -61.5t51 -166.5q0 -29 -3 -47h-328q5 -77 48.5 -123t113.5 -46q62 0 121 38l29 -54q-78 -50 -160 -50zM126 282h260q0 73 -31.5 112t-88.5 39q-53 0 -93 -40.5t-47 -110.5zM131 601v57h266v-57h-266z
" />
    <glyph glyph-name="Ebreve" unicode="&#x114;" horiz-adv-x="527" 
d="M90 0v656h378v-70h-295v-206h249v-71h-249v-238h305v-71h-388zM284 705q-66 0 -103 36t-43 93l50 8q6 -37 30.5 -60.5t65.5 -23.5t65.5 23.5t30.5 60.5l50 -8q-6 -57 -43 -93t-103 -36z" />
    <glyph glyph-name="ebreve" unicode="&#x115;" horiz-adv-x="496" 
d="M279 -12q-100 0 -166.5 69t-66.5 185q0 114 65 185t153 71q92 0 143 -61.5t51 -166.5q0 -29 -3 -47h-328q5 -77 48.5 -123t113.5 -46q62 0 121 38l29 -54q-78 -50 -160 -50zM126 282h260q0 73 -31.5 112t-88.5 39q-53 0 -93 -40.5t-47 -110.5zM264 571q-74 0 -113 44
t-43 107l51 8q7 -43 33.5 -73.5t71.5 -30.5t71.5 30.5t33.5 73.5l51 -8q-4 -63 -43 -107t-113 -44z" />
    <glyph glyph-name="Edotaccent" unicode="&#x116;" horiz-adv-x="527" 
d="M90 0v656h378v-70h-295v-206h249v-71h-249v-238h305v-71h-388zM284 714q-24 0 -40.5 15t-16.5 39q0 23 16.5 38t40.5 15t40.5 -15t16.5 -38q0 -24 -16.5 -39t-40.5 -15z" />
    <glyph glyph-name="edotaccent" unicode="&#x117;" horiz-adv-x="496" 
d="M279 -12q-100 0 -166.5 69t-66.5 185q0 114 65 185t153 71q92 0 143 -61.5t51 -166.5q0 -29 -3 -47h-328q5 -77 48.5 -123t113.5 -46q62 0 121 38l29 -54q-78 -50 -160 -50zM126 282h260q0 73 -31.5 112t-88.5 39q-53 0 -93 -40.5t-47 -110.5zM264 586q-23 0 -38.5 15
t-15.5 39q0 23 15.5 38.5t38.5 15.5t38.5 -15.5t15.5 -38.5q0 -24 -15.5 -39t-38.5 -15z" />
    <glyph glyph-name="Eogonek" unicode="&#x118;" horiz-adv-x="527" 
d="M414 -212q-42 0 -69 23t-27 64q0 38 22 71.5t53 53.5h-303v656h378v-70h-295v-206h249v-71h-249v-238h305v-71h-3q-35 -5 -63.5 -36.5t-28.5 -70.5q0 -22 14 -34t34 -12q21 0 40 14l23 -45q-35 -28 -80 -28z" />
    <glyph glyph-name="eogonek" unicode="&#x119;" horiz-adv-x="496" 
d="M358 -206q-40 0 -65 22t-25 63q0 63 60 116q-20 -7 -49 -7q-100 0 -166.5 69t-66.5 185q0 114 65 185t153 71q92 0 143 -61.5t51 -166.5q0 -29 -3 -47h-328q5 -77 48.5 -123t113.5 -46q62 0 121 38l29 -54q-63 -45 -87 -77.5t-24 -65.5q0 -22 13.5 -34t33.5 -12t40 13
l21 -41q-34 -27 -78 -27zM126 282h260q0 73 -31.5 112t-88.5 39q-53 0 -93 -40.5t-47 -110.5z" />
    <glyph glyph-name="Ecaron" unicode="&#x11a;" horiz-adv-x="527" 
d="M90 0v656h378v-70h-295v-206h249v-71h-249v-238h305v-71h-388zM241 706l-105 113l36 26l110 -92h4l110 92l36 -26l-105 -113h-86z" />
    <glyph glyph-name="ecaron" unicode="&#x11b;" horiz-adv-x="496" 
d="M279 -12q-100 0 -166.5 69t-66.5 185q0 114 65 185t153 71q92 0 143 -61.5t51 -166.5q0 -29 -3 -47h-328q5 -77 48.5 -123t113.5 -46q62 0 121 38l29 -54q-78 -50 -160 -50zM126 282h260q0 73 -31.5 112t-88.5 39q-53 0 -93 -40.5t-47 -110.5zM223 574l-114 140l35 32
l118 -113h4l118 113l35 -32l-114 -140h-82z" />
    <glyph glyph-name="Gcircumflex" unicode="&#x11c;" horiz-adv-x="617" 
d="M348 -12q-132 0 -214 91t-82 249q0 156 84 248t217 92q112 0 189 -81l-46 -54q-60 62 -141 62q-99 0 -158 -71.5t-59 -193.5q0 -125 57 -197t161 -72q76 0 118 39v171h-139v69h215v-276q-73 -76 -202 -76zM206 725l105 113h86l105 -113l-36 -26l-110 93h-4l-110 -93z" />
    <glyph glyph-name="gcircumflex" unicode="&#x11d;" horiz-adv-x="504" 
d="M246 -224q-91 0 -146 34.5t-55 96.5t71 110v4q-43 27 -43 79q0 54 53 90v4q-63 51 -63 131q0 77 53 125t130 48q38 0 69 -12h169v-63h-100q40 -38 40 -100q0 -76 -51 -122.5t-127 -46.5q-39 0 -73 17q-31 -27 -31 -58q0 -53 86 -53h94q86 0 128 -28t42 -88
q0 -70 -68 -119t-178 -49zM246 209q43 0 73 32t30 84t-29.5 82.5t-73.5 30.5t-73.5 -30.5t-29.5 -82.5t30 -84t73 -32zM258 -167q67 0 110.5 29.5t43.5 69.5q0 33 -24.5 46.5t-73.5 13.5h-84q-35 0 -63 8q-50 -36 -50 -82q0 -39 37.5 -62t103.5 -23zM113 600l114 140h82
l114 -140l-35 -32l-118 113h-4l-118 -113z" />
    <glyph glyph-name="Gbreve" unicode="&#x11e;" horiz-adv-x="617" 
d="M348 -12q-132 0 -214 91t-82 249q0 156 84 248t217 92q112 0 189 -81l-46 -54q-60 62 -141 62q-99 0 -158 -71.5t-59 -193.5q0 -125 57 -197t161 -72q76 0 118 39v171h-139v69h215v-276q-73 -76 -202 -76zM354 705q-66 0 -103 36t-43 93l50 8q6 -37 30.5 -60.5
t65.5 -23.5t65.5 23.5t30.5 60.5l50 -8q-6 -57 -43 -93t-103 -36z" />
    <glyph glyph-name="gbreve" unicode="&#x11f;" horiz-adv-x="504" 
d="M246 -224q-91 0 -146 34.5t-55 96.5t71 110v4q-43 27 -43 79q0 54 53 90v4q-63 51 -63 131q0 77 53 125t130 48q38 0 69 -12h169v-63h-100q40 -38 40 -100q0 -76 -51 -122.5t-127 -46.5q-39 0 -73 17q-31 -27 -31 -58q0 -53 86 -53h94q86 0 128 -28t42 -88
q0 -70 -68 -119t-178 -49zM246 209q43 0 73 32t30 84t-29.5 82.5t-73.5 30.5t-73.5 -30.5t-29.5 -82.5t30 -84t73 -32zM258 -167q67 0 110.5 29.5t43.5 69.5q0 33 -24.5 46.5t-73.5 13.5h-84q-35 0 -63 8q-50 -36 -50 -82q0 -39 37.5 -62t103.5 -23zM268 571q-74 0 -113 44
t-43 107l51 8q7 -43 33.5 -73.5t71.5 -30.5t71.5 30.5t33.5 73.5l51 -8q-4 -63 -43 -107t-113 -44z" />
    <glyph glyph-name="Gdotaccent" unicode="&#x120;" horiz-adv-x="617" 
d="M348 -12q-132 0 -214 91t-82 249q0 156 84 248t217 92q112 0 189 -81l-46 -54q-60 62 -141 62q-99 0 -158 -71.5t-59 -193.5q0 -125 57 -197t161 -72q76 0 118 39v171h-139v69h215v-276q-73 -76 -202 -76zM354 714q-24 0 -40.5 15t-16.5 39q0 23 16.5 38t40.5 15
t40.5 -15t16.5 -38q0 -24 -16.5 -39t-40.5 -15z" />
    <glyph glyph-name="gdotaccent" unicode="&#x121;" horiz-adv-x="504" 
d="M246 -224q-91 0 -146 34.5t-55 96.5t71 110v4q-43 27 -43 79q0 54 53 90v4q-63 51 -63 131q0 77 53 125t130 48q38 0 69 -12h169v-63h-100q40 -38 40 -100q0 -76 -51 -122.5t-127 -46.5q-39 0 -73 17q-31 -27 -31 -58q0 -53 86 -53h94q86 0 128 -28t42 -88
q0 -70 -68 -119t-178 -49zM246 209q43 0 73 32t30 84t-29.5 82.5t-73.5 30.5t-73.5 -30.5t-29.5 -82.5t30 -84t73 -32zM258 -167q67 0 110.5 29.5t43.5 69.5q0 33 -24.5 46.5t-73.5 13.5h-84q-35 0 -63 8q-50 -36 -50 -82q0 -39 37.5 -62t103.5 -23zM268 586q-23 0 -38.5 15
t-15.5 39q0 23 15.5 38.5t38.5 15.5t38.5 -15.5t15.5 -38.5q0 -24 -15.5 -39t-38.5 -15z" />
    <glyph glyph-name="uni0122" unicode="&#x122;" horiz-adv-x="617" 
d="M348 -12q-132 0 -214 91t-82 249q0 156 84 248t217 92q112 0 189 -81l-46 -54q-60 62 -141 62q-99 0 -158 -71.5t-59 -193.5q0 -125 57 -197t161 -72q76 0 118 39v171h-139v69h215v-276q-73 -76 -202 -76zM261 -226l-8 40q61 4 85 15.5t24 32.5q0 36 -71 42l18 38
q64 -7 90.5 -25t26.5 -52q0 -83 -165 -91z" />
    <glyph glyph-name="uni0123" unicode="&#x123;" horiz-adv-x="504" 
d="M246 -224q-91 0 -146 34.5t-55 96.5t71 110v4q-43 27 -43 79q0 54 53 90v4q-63 51 -63 131q0 77 53 125t130 48q38 0 69 -12h169v-63h-100q40 -38 40 -100q0 -76 -51 -122.5t-127 -46.5q-39 0 -73 17q-31 -27 -31 -58q0 -53 86 -53h94q86 0 128 -28t42 -88
q0 -70 -68 -119t-178 -49zM246 209q43 0 73 32t30 84t-29.5 82.5t-73.5 30.5t-73.5 -30.5t-29.5 -82.5t30 -84t73 -32zM258 -167q67 0 110.5 29.5t43.5 69.5q0 33 -24.5 46.5t-73.5 13.5h-84q-35 0 -63 8q-50 -36 -50 -82q0 -39 37.5 -62t103.5 -23zM307 575q-64 7 -90.5 25
t-26.5 52q0 83 165 92l8 -41q-61 -4 -85 -15t-24 -33q0 -36 71 -42z" />
    <glyph glyph-name="Hcircumflex" unicode="&#x124;" horiz-adv-x="652" 
d="M90 0v656h83v-275h305v275h84v-656h-84v309h-305v-309h-83zM177 725l105 113h86l105 -113l-36 -26l-110 93h-4l-110 -93z" />
    <glyph glyph-name="hcircumflex" unicode="&#x125;" horiz-adv-x="544" 
d="M82 0v712h82v-194l-3 -100q84 80 162 80q148 0 148 -190v-308h-82v297q0 68 -22 99t-70 31q-35 0 -64 -17.5t-69 -57.5v-352h-82zM-24 767l105 113h86l105 -113l-36 -26l-110 93h-4l-110 -93z" />
    <glyph glyph-name="Hbar" unicode="&#x126;" horiz-adv-x="687" 
d="M32 492v42l78 5v117h83v-117h305v117h84v-117h72v-47h-72v-492h-84v309h-305v-309h-83v492h-78zM193 381h305v111h-305v-111z" />
    <glyph glyph-name="hbar" unicode="&#x127;" horiz-adv-x="544" 
d="M82 0v571h-74v43l74 5v93h82v-93h182v-48h-182v-93l-3 -100q85 81 162 81q148 0 148 -190v-269h-82v258q0 68 -22 98.5t-70 30.5q-35 0 -64 -17t-69 -57v-313h-82z" />
    <glyph glyph-name="Itilde" unicode="&#x128;" horiz-adv-x="263" 
d="M90 0v656h83v-656h-83zM206 709q-32 0 -59 17.5t-48.5 35.5t-40.5 18t-32 -17t-16 -49l-56 4q3 57 30 90t72 33q32 0 59 -17.5t48.5 -35.5t40.5 -18q40 0 48 66l56 -4q-3 -58 -30 -90.5t-72 -32.5z" />
    <glyph glyph-name="itilde" unicode="&#x129;" horiz-adv-x="246" 
d="M82 0v486h82v-486h-82zM195 577q-30 0 -56 21t-47.5 42t-39.5 21q-42 0 -47 -79l-55 3q2 62 27 99t74 37q30 0 56 -21t47.5 -42t40.5 -21q41 0 46 79l55 -4q-2 -62 -27 -98.5t-74 -36.5z" />
    <glyph glyph-name="Imacron" unicode="&#x12a;" horiz-adv-x="263" 
d="M90 0v656h83v-656h-83zM-3 735v57h268v-57h-268z" />
    <glyph glyph-name="imacron" unicode="&#x12b;" horiz-adv-x="246" 
d="M82 0v486h82v-486h-82zM-10 601v57h266v-57h-266z" />
    <glyph glyph-name="uni012C" unicode="&#x12c;" horiz-adv-x="263" 
d="M90 0v656h83v-656h-83zM131 705q-66 0 -103 36t-43 93l50 8q6 -37 30.5 -60.5t65.5 -23.5t65.5 23.5t30.5 60.5l50 -8q-6 -57 -43 -93t-103 -36z" />
    <glyph glyph-name="uni012D" unicode="&#x12d;" horiz-adv-x="246" 
d="M82 0v486h82v-486h-82zM124 571q-74 0 -113 44t-43 107l51 8q7 -43 33.5 -73.5t71.5 -30.5t71.5 30.5t33.5 73.5l51 -8q-4 -63 -43 -107t-113 -44z" />
    <glyph glyph-name="Iogonek" unicode="&#x12e;" horiz-adv-x="263" 
d="M139 -212q-42 0 -69 23t-27 64q0 64 67 125h-20v656h83v-656q-65 -51 -65 -107q0 -22 14 -34t33 -12q22 0 41 14l23 -45q-37 -28 -80 -28z" />
    <glyph glyph-name="iogonek" unicode="&#x12f;" horiz-adv-x="246" 
d="M129 -206q-40 0 -65.5 22t-25.5 63q0 57 64 121h-20v486h82v-486q-65 -47 -65 -105q0 -22 13.5 -34t33.5 -12q19 0 40 13l21 -41q-34 -27 -78 -27zM123 586q-24 0 -40.5 15t-16.5 38q0 24 16.5 38.5t40.5 14.5t40 -14.5t16 -38.5q0 -23 -16 -38t-40 -15z" />
    <glyph glyph-name="Idotaccent" unicode="&#x130;" horiz-adv-x="263" 
d="M90 0v656h83v-656h-83zM131 714q-24 0 -40.5 15t-16.5 39q0 23 16.5 38t40.5 15t40.5 -15t16.5 -38q0 -24 -16.5 -39t-40.5 -15z" />
    <glyph glyph-name="dotlessi" unicode="&#x131;" horiz-adv-x="246" 
d="M82 0v486h82v-486h-82z" />
    <glyph glyph-name="uni0132" unicode="&#x132;" horiz-adv-x="526" 
d="M90 0v656h83v-656h-83zM302 -165q-38 0 -72 12l16 66q29 -9 46 -9q35 0 48 24t13 72v656h83v-659q0 -162 -134 -162z" />
    <glyph glyph-name="uni0133" unicode="&#x133;" horiz-adv-x="493" 
d="M82 0v486h82v-486h-82zM124 586q-24 0 -40.5 15t-16.5 38q0 24 16.5 38.5t40.5 14.5t40.5 -14.5t16.5 -38.5q0 -23 -16.5 -38t-40.5 -15zM278 -217q-40 0 -72 13l17 62q24 -8 46 -8q34 0 47 23.5t13 71.5v541h82v-541q0 -162 -133 -162zM371 586q-24 0 -40.5 15t-16.5 38
q0 24 16.5 38.5t40.5 14.5t40 -14.5t16 -38.5q0 -23 -16 -38t-40 -15z" />
    <glyph glyph-name="Jcircumflex" unicode="&#x134;" horiz-adv-x="480" 
d="M212 -12q-123 0 -181 105l60 42q41 -74 113 -74q53 0 79 33t26 107v455h84v-463q0 -91 -45 -148t-136 -57zM200 725l105 113h86l105 -113l-36 -26l-110 93h-4l-110 -93z" />
    <glyph glyph-name="jcircumflex" unicode="&#x135;" horiz-adv-x="247" 
d="M32 -217q-40 0 -72 13l17 62q24 -8 46 -8q34 0 47 23.5t13 71.5v541h82v-541q0 -162 -133 -162zM-31 600l114 140h82l114 -140l-35 -32l-118 113h-4l-118 -113z" />
    <glyph glyph-name="uni0136" unicode="&#x136;" horiz-adv-x="579" 
d="M90 0v656h83v-329h3l273 329h94l-205 -250l237 -406h-93l-196 341l-113 -133v-208h-83zM239 -226l-8 40q61 4 85 15.5t24 32.5q0 36 -71 42l18 38q64 -7 90.5 -25t26.5 -52q0 -83 -165 -91z" />
    <glyph glyph-name="uni0137" unicode="&#x137;" horiz-adv-x="495" 
d="M82 0v712h81v-482h3l207 256h91l-163 -195l185 -291h-90l-142 234l-91 -106v-128h-81zM184 -226l-8 40q61 4 85 15.5t24 32.5q0 36 -71 42l18 38q64 -7 90.5 -25t26.5 -52q0 -83 -165 -91z" />
    <glyph glyph-name="kgreenlandic" unicode="&#x138;" horiz-adv-x="495" 
d="M82 0v486h82v-258h3l206 258h91l-161 -195l183 -291h-90l-142 231l-90 -106v-125h-82z" />
    <glyph glyph-name="Lacute" unicode="&#x139;" horiz-adv-x="486" 
d="M90 0v656h83v-585h287v-71h-370zM117 697l-37 42l142 128l47 -55z" />
    <glyph glyph-name="lacute" unicode="&#x13a;" horiz-adv-x="255" 
d="M169 -12q-87 0 -87 110v614h82v-620q0 -36 23 -36q9 0 18 2l11 -62q-18 -8 -47 -8zM102 749l-37 42l142 128l47 -55z" />
    <glyph glyph-name="uni013B" unicode="&#x13b;" horiz-adv-x="486" 
d="M90 0v656h83v-585h287v-71h-370zM201 -226l-8 40q61 4 85 15.5t24 32.5q0 36 -71 42l18 38q64 -7 90.5 -25t26.5 -52q0 -83 -165 -91z" />
    <glyph glyph-name="uni013C" unicode="&#x13c;" horiz-adv-x="255" 
d="M169 -12q-87 0 -87 110v614h82v-620q0 -36 23 -36q9 0 18 2l11 -62q-18 -8 -47 -8zM71 -226l-8 40q61 4 85 15.5t24 32.5q0 36 -71 42l18 38q64 -7 90.5 -25t26.5 -52q0 -83 -165 -91z" />
    <glyph glyph-name="Lcaron" unicode="&#x13d;" horiz-adv-x="486" 
d="M90 0v656h83v-585h287v-71h-370zM334 514l-4 212h59l-1 -57l-14 -155h-40z" />
    <glyph glyph-name="lcaron" unicode="&#x13e;" horiz-adv-x="270" 
d="M169 -12q-87 0 -87 110v614h82v-620q0 -36 23 -36q9 0 18 2l11 -62q-18 -8 -47 -8zM221 548l-4 212h59l-1 -57l-14 -155h-40z" />
    <glyph glyph-name="Ldot" unicode="&#x13f;" horiz-adv-x="486" 
d="M90 0v656h83v-585h287v-71h-370zM377 263q-25 0 -42.5 17.5t-17.5 44.5q0 28 17.5 46t42.5 18t42 -18t17 -46q0 -27 -17.5 -44.5t-41.5 -17.5z" />
    <glyph glyph-name="ldot" unicode="&#x140;" horiz-adv-x="362" 
d="M169 -12q-87 0 -87 110v614h82v-620q0 -36 23 -36q9 0 18 2l11 -62q-18 -8 -47 -8zM304 263q-25 0 -42.5 17.5t-17.5 44.5q0 28 17.5 46t42.5 18t42 -18t17 -46q0 -27 -17.5 -44.5t-41.5 -17.5z" />
    <glyph glyph-name="Lslash" unicode="&#x141;" horiz-adv-x="489" 
d="M24 200l-30 53l101 55v348h83v-311l176 95l30 -53l-206 -110v-206h287v-71h-370v240z" />
    <glyph glyph-name="lslash" unicode="&#x142;" horiz-adv-x="262" 
d="M173 -12q-87 0 -87 110v233l-57 -36l-30 53l87 53v311h82v-268l54 35l30 -53l-84 -52v-282q0 -36 23 -36q9 0 18 2l11 -62q-18 -8 -47 -8z" />
    <glyph glyph-name="Nacute" unicode="&#x143;" horiz-adv-x="647" 
d="M90 0v656h86l237 -412l71 -136h4q-10 165 -10 209v339h79v-656h-86l-238 413l-71 135h-4q11 -145 11 -205v-343h-79zM310 697l-37 42l142 128l47 -55z" />
    <glyph glyph-name="nacute" unicode="&#x144;" horiz-adv-x="547" 
d="M82 0v486h68l7 -70h3q82 82 163 82q148 0 148 -190v-308h-82v297q0 68 -22 99t-70 31q-35 0 -64 -17.5t-69 -57.5v-352h-82zM278 573l-42 41l141 167l58 -55z" />
    <glyph glyph-name="uni0145" unicode="&#x145;" horiz-adv-x="647" 
d="M90 0v656h86l237 -412l71 -136h4q-10 165 -10 209v339h79v-656h-86l-238 413l-71 135h-4q11 -145 11 -205v-343h-79zM241 -226l-8 40q61 4 85 15.5t24 32.5q0 36 -71 42l18 38q64 -7 90.5 -25t26.5 -52q0 -83 -165 -91z" />
    <glyph glyph-name="uni0146" unicode="&#x146;" horiz-adv-x="547" 
d="M82 0v486h68l7 -70h3q82 82 163 82q148 0 148 -190v-308h-82v297q0 68 -22 99t-70 31q-35 0 -64 -17.5t-69 -57.5v-352h-82zM192 -226l-8 40q61 4 85 15.5t24 32.5q0 36 -71 42l18 38q64 -7 90.5 -25t26.5 -52q0 -83 -165 -91z" />
    <glyph glyph-name="Ncaron" unicode="&#x147;" horiz-adv-x="647" 
d="M90 0v656h86l237 -412l71 -136h4q-10 165 -10 209v339h79v-656h-86l-238 413l-71 135h-4q11 -145 11 -205v-343h-79zM284 706l-105 113l36 26l110 -92h4l110 92l36 -26l-105 -113h-86z" />
    <glyph glyph-name="ncaron" unicode="&#x148;" horiz-adv-x="547" 
d="M82 0v486h68l7 -70h3q82 82 163 82q148 0 148 -190v-308h-82v297q0 68 -22 99t-70 31q-35 0 -64 -17.5t-69 -57.5v-352h-82zM251 574l-114 140l35 32l118 -113h4l118 113l35 -32l-114 -140h-82z" />
    <glyph glyph-name="napostrophe" unicode="&#x149;" horiz-adv-x="775" 
d="M304 0v486h68l7 -70h3q82 82 163 82q148 0 148 -190v-308h-82v297q0 68 -22 99t-70 31q-35 0 -64 -17.5t-69 -57.5v-352h-82zM86 431l-23 38q75 49 75 125q-3 -1 -8 -1q-22 0 -37.5 13.5t-15.5 36.5q0 26 14.5 41t38.5 15q29 0 46 -24t17 -67q0 -115 -107 -177z" />
    <glyph glyph-name="uni014A" unicode="&#x14a;" horiz-adv-x="635" 
d="M406 -12q-51 0 -78 15l20 75q22 -11 50 -11q99 0 99 268q0 140 -42 200t-120 60q-39 0 -85.5 -28t-76.5 -70v-497h-83v656h81v-81q37 42 86 67.5t99 25.5q105 0 166 -79.5t61 -253.5q0 -347 -177 -347z" />
    <glyph glyph-name="uni014B" unicode="&#x14b;" horiz-adv-x="547" 
d="M338 -183q-41 0 -71 13l16 63q27 -9 46 -9q34 0 47 24t13 72v317q0 68 -22 99t-70 31q-35 0 -64 -17.5t-69 -57.5v-352h-82v486h68l7 -70h3q82 82 163 82q148 0 148 -190v-329q0 -162 -133 -162z" />
    <glyph glyph-name="Omacron" unicode="&#x14c;" horiz-adv-x="664" 
d="M332 -12q-125 0 -202.5 93t-77.5 250q0 155 77.5 246t202.5 91t203 -91t78 -246q0 -157 -78 -250t-203 -93zM332 61q88 0 141 73.5t53 196.5q0 122 -53 193t-141 71t-141 -71t-53 -193q0 -123 53 -196.5t141 -73.5zM198 735v57h268v-57h-268z" />
    <glyph glyph-name="omacron" unicode="&#x14d;" horiz-adv-x="542" 
d="M271 -12q-94 0 -159.5 69t-65.5 185q0 118 65.5 187t159.5 69t159.5 -69t65.5 -187q0 -116 -65.5 -185t-159.5 -69zM271 56q63 0 101.5 51.5t38.5 134.5q0 84 -38.5 136t-101.5 52q-62 0 -101 -52t-39 -136q0 -83 39 -134.5t101 -51.5zM138 601v57h266v-57h-266z" />
    <glyph glyph-name="uni014E" unicode="&#x14e;" horiz-adv-x="664" 
d="M332 -12q-125 0 -202.5 93t-77.5 250q0 155 77.5 246t202.5 91t203 -91t78 -246q0 -157 -78 -250t-203 -93zM332 61q88 0 141 73.5t53 196.5q0 122 -53 193t-141 71t-141 -71t-53 -193q0 -123 53 -196.5t141 -73.5zM332 705q-66 0 -103 36t-43 93l50 8q6 -37 30.5 -60.5
t65.5 -23.5t65.5 23.5t30.5 60.5l50 -8q-6 -57 -43 -93t-103 -36z" />
    <glyph glyph-name="uni014F" unicode="&#x14f;" horiz-adv-x="542" 
d="M271 -12q-94 0 -159.5 69t-65.5 185q0 118 65.5 187t159.5 69t159.5 -69t65.5 -187q0 -116 -65.5 -185t-159.5 -69zM271 56q63 0 101.5 51.5t38.5 134.5q0 84 -38.5 136t-101.5 52q-62 0 -101 -52t-39 -136q0 -83 39 -134.5t101 -51.5zM271 571q-74 0 -113 44t-43 107
l51 8q7 -43 33.5 -73.5t71.5 -30.5t71.5 30.5t33.5 73.5l51 -8q-4 -63 -43 -107t-113 -44z" />
    <glyph glyph-name="Ohungarumlaut" unicode="&#x150;" horiz-adv-x="664" 
d="M332 -12q-125 0 -202.5 93t-77.5 250q0 155 77.5 246t202.5 91t203 -91t78 -246q0 -157 -78 -250t-203 -93zM332 61q88 0 141 73.5t53 196.5q0 122 -53 193t-141 71t-141 -71t-53 -193q0 -123 53 -196.5t141 -73.5zM230 724l92 152l56 -32l-105 -141zM390 724l92 152
l56 -32l-105 -141z" />
    <glyph glyph-name="ohungarumlaut" unicode="&#x151;" horiz-adv-x="542" 
d="M271 -12q-94 0 -159.5 69t-65.5 185q0 118 65.5 187t159.5 69t159.5 -69t65.5 -187q0 -116 -65.5 -185t-159.5 -69zM271 56q63 0 101.5 51.5t38.5 134.5q0 84 -38.5 136t-101.5 52q-62 0 -101 -52t-39 -136q0 -83 39 -134.5t101 -51.5zM220 568l-45 21l86 172l59 -28z
M371 568l-46 21l87 172l58 -28z" />
    <glyph glyph-name="OE" unicode="&#x152;" horiz-adv-x="847" 
d="M369 0q-149 0 -233 87t-84 244q0 156 84 240.5t237 84.5h415v-70h-278v-206h232v-71h-232v-238h288v-71h-429zM379 68h48v520h-48q-118 0 -179.5 -66t-61.5 -191q0 -126 61.5 -194.5t179.5 -68.5z" />
    <glyph glyph-name="oe" unicode="&#x153;" horiz-adv-x="839" 
d="M264 -12q-92 0 -155 68.5t-63 185.5q0 118 63.5 187t156.5 69q56 0 103 -32t73 -90q28 57 73 89.5t98 32.5q89 0 138.5 -61.5t49.5 -167.5q0 -28 -3 -46h-319q3 -75 46.5 -121.5t106.5 -46.5q57 0 120 40l30 -57q-78 -50 -160 -50q-57 0 -104 32t-75 89
q-57 -121 -179 -121zM266 56q60 0 98 51.5t38 134.5q0 84 -38 136t-98 52t-98 -52t-38 -136q0 -83 38 -134.5t98 -51.5zM479 278h250q0 74 -31 114.5t-87 40.5q-51 0 -88 -42.5t-44 -112.5z" />
    <glyph glyph-name="Racute" unicode="&#x154;" horiz-adv-x="569" 
d="M90 0v656h205q230 0 230 -184q0 -75 -39 -122t-109 -64l167 -286h-94l-158 277h-119v-277h-83zM173 345h110q159 0 159 127q0 62 -40 89.5t-119 27.5h-110v-244zM271 697l-37 42l142 128l47 -55z" />
    <glyph glyph-name="racute" unicode="&#x155;" horiz-adv-x="347" 
d="M82 0v486h68l7 -88h3q25 47 61 73.5t77 26.5q29 0 52 -10l-16 -72q-26 8 -47 8q-34 0 -67 -27t-56 -85v-312h-82zM204 573l-42 41l141 167l58 -55z" />
    <glyph glyph-name="uni0156" unicode="&#x156;" horiz-adv-x="569" 
d="M90 0v656h205q230 0 230 -184q0 -75 -39 -122t-109 -64l167 -286h-94l-158 277h-119v-277h-83zM173 345h110q159 0 159 127q0 62 -40 89.5t-119 27.5h-110v-244zM217 -226l-8 40q61 4 85 15.5t24 32.5q0 36 -71 42l18 38q64 -7 90.5 -25t26.5 -52q0 -83 -165 -91z" />
    <glyph glyph-name="uni0157" unicode="&#x157;" horiz-adv-x="347" 
d="M82 0v486h68l7 -88h3q25 47 61 73.5t77 26.5q29 0 52 -10l-16 -72q-26 8 -47 8q-34 0 -67 -27t-56 -85v-312h-82zM34 -226l-8 40q61 4 85 15.5t24 32.5q0 36 -71 42l18 38q64 -7 90.5 -25t26.5 -52q0 -83 -165 -91z" />
    <glyph glyph-name="Rcaron" unicode="&#x158;" horiz-adv-x="569" 
d="M90 0v656h205q230 0 230 -184q0 -75 -39 -122t-109 -64l167 -286h-94l-158 277h-119v-277h-83zM173 345h110q159 0 159 127q0 62 -40 89.5t-119 27.5h-110v-244zM245 706l-105 113l36 26l110 -92h4l110 92l36 -26l-105 -113h-86z" />
    <glyph glyph-name="rcaron" unicode="&#x159;" horiz-adv-x="347" 
d="M82 0v486h68l7 -88h3q25 47 61 73.5t77 26.5q29 0 52 -10l-16 -72q-26 8 -47 8q-34 0 -67 -27t-56 -85v-312h-82zM177 574l-114 140l35 32l118 -113h4l118 113l35 -32l-114 -140h-82z" />
    <glyph glyph-name="Sacute" unicode="&#x15a;" horiz-adv-x="534" 
d="M272 -12q-136 0 -230 97l50 58q79 -82 181 -82q64 0 100.5 29t36.5 78q0 24 -7 41.5t-25.5 31.5t-32.5 21.5t-44 21.5l-94 41q-133 56 -133 169q0 75 58.5 124.5t147.5 49.5q115 0 194 -81l-45 -54q-65 62 -149 62q-55 0 -88.5 -26t-33.5 -70q0 -22 8.5 -39.5t27.5 -31
t33 -20.5t40 -18l93 -40q65 -28 100 -68t35 -107q0 -80 -61 -133.5t-162 -53.5zM262 697l-37 42l142 128l47 -55z" />
    <glyph glyph-name="sacute" unicode="&#x15b;" horiz-adv-x="419" 
d="M209 -12q-100 0 -181 67l41 55q72 -58 143 -58q46 0 71 21.5t25 54.5q0 18 -9 32t-28 25.5t-33 18t-41 16.5q-32 11 -53 21t-44.5 27t-35.5 40t-12 52q0 60 45 99t122 39q83 0 151 -55l-39 -52q-57 43 -111 43q-43 0 -66 -20t-23 -50q0 -20 16.5 -36.5t31 -23.5t50.5 -20
q7 -3 10 -4q28 -11 43 -17t38.5 -19.5t35.5 -27t21.5 -35t9.5 -48.5q0 -62 -47.5 -103.5t-130.5 -41.5zM206 573l-42 41l141 167l58 -55z" />
    <glyph glyph-name="Scircumflex" unicode="&#x15c;" horiz-adv-x="534" 
d="M272 -12q-136 0 -230 97l50 58q79 -82 181 -82q64 0 100.5 29t36.5 78q0 24 -7 41.5t-25.5 31.5t-32.5 21.5t-44 21.5l-94 41q-133 56 -133 169q0 75 58.5 124.5t147.5 49.5q115 0 194 -81l-45 -54q-65 62 -149 62q-55 0 -88.5 -26t-33.5 -70q0 -22 8.5 -39.5t27.5 -31
t33 -20.5t40 -18l93 -40q65 -28 100 -68t35 -107q0 -80 -61 -133.5t-162 -53.5zM131 725l105 113h86l105 -113l-36 -26l-110 93h-4l-110 -93z" />
    <glyph glyph-name="scircumflex" unicode="&#x15d;" horiz-adv-x="419" 
d="M209 -12q-100 0 -181 67l41 55q72 -58 143 -58q46 0 71 21.5t25 54.5q0 18 -9 32t-28 25.5t-33 18t-41 16.5q-32 11 -53 21t-44.5 27t-35.5 40t-12 52q0 60 45 99t122 39q83 0 151 -55l-39 -52q-57 43 -111 43q-43 0 -66 -20t-23 -50q0 -20 16.5 -36.5t31 -23.5t50.5 -20
q7 -3 10 -4q28 -11 43 -17t38.5 -19.5t35.5 -27t21.5 -35t9.5 -48.5q0 -62 -47.5 -103.5t-130.5 -41.5zM65 600l114 140h82l114 -140l-35 -32l-118 113h-4l-118 -113z" />
    <glyph glyph-name="uni015E" unicode="&#x15e;" horiz-adv-x="534" 
d="M186 -226l-8 40q61 4 85 16t24 34q0 20 -17.5 31t-59.5 17l37 77q-121 9 -205 96l50 58q79 -82 181 -82q64 0 100.5 29t36.5 78q0 24 -7 41.5t-25.5 31.5t-32.5 21.5t-44 21.5l-94 41q-133 56 -133 169q0 75 58.5 124.5t147.5 49.5q115 0 194 -81l-45 -54q-65 62 -149 62
q-55 0 -88.5 -26t-33.5 -70q0 -22 8.5 -39.5t27.5 -31t33 -20.5t40 -18l93 -40q65 -28 100 -68t35 -107q0 -74 -52.5 -126t-141.5 -60l-23 -53q73 -17 73 -71q0 -83 -165 -91z" />
    <glyph glyph-name="uni015F" unicode="&#x15f;" horiz-adv-x="419" 
d="M135 -226l-8 40q61 4 85 16t24 34q0 20 -17.5 31t-59.5 17l37 76q-95 6 -168 67l41 55q72 -58 143 -58q46 0 71 21.5t25 54.5q0 18 -9 32t-28 25.5t-33 18t-41 16.5q-32 11 -53 21t-44.5 27t-35.5 40t-12 52q0 60 45 99t122 39q83 0 151 -55l-39 -52q-57 43 -111 43
q-43 0 -66 -20t-23 -50q0 -20 16.5 -36.5t31 -23.5t50.5 -20q7 -3 10 -4q28 -11 43 -17t38.5 -19.5t35.5 -27t21.5 -35t9.5 -48.5q0 -53 -36 -92.5t-100 -49.5l-24 -55q73 -17 73 -71q0 -83 -165 -91z" />
    <glyph glyph-name="Scaron" unicode="&#x160;" horiz-adv-x="534" 
d="M272 -12q-136 0 -230 97l50 58q79 -82 181 -82q64 0 100.5 29t36.5 78q0 24 -7 41.5t-25.5 31.5t-32.5 21.5t-44 21.5l-94 41q-133 56 -133 169q0 75 58.5 124.5t147.5 49.5q115 0 194 -81l-45 -54q-65 62 -149 62q-55 0 -88.5 -26t-33.5 -70q0 -22 8.5 -39.5t27.5 -31
t33 -20.5t40 -18l93 -40q65 -28 100 -68t35 -107q0 -80 -61 -133.5t-162 -53.5zM236 706l-105 113l36 26l110 -92h4l110 92l36 -26l-105 -113h-86z" />
    <glyph glyph-name="scaron" unicode="&#x161;" horiz-adv-x="419" 
d="M209 -12q-100 0 -181 67l41 55q72 -58 143 -58q46 0 71 21.5t25 54.5q0 18 -9 32t-28 25.5t-33 18t-41 16.5q-32 11 -53 21t-44.5 27t-35.5 40t-12 52q0 60 45 99t122 39q83 0 151 -55l-39 -52q-57 43 -111 43q-43 0 -66 -20t-23 -50q0 -20 16.5 -36.5t31 -23.5t50.5 -20
q7 -3 10 -4q28 -11 43 -17t38.5 -19.5t35.5 -27t21.5 -35t9.5 -48.5q0 -62 -47.5 -103.5t-130.5 -41.5zM179 574l-114 140l35 32l118 -113h4l118 113l35 -32l-114 -140h-82z" />
    <glyph glyph-name="uni0162" unicode="&#x162;" horiz-adv-x="536" 
d="M226 0v586h-198v70h480v-70h-198v-586h-12l-28 -64q73 -17 73 -71q0 -83 -165 -91l-8 40q61 4 85 16t24 34q0 20 -17.5 31t-59.5 17l43 88h-19z" />
    <glyph glyph-name="uni0163" unicode="&#x163;" horiz-adv-x="338" 
d="M130 -226l-8 40q61 4 85 16t24 34q0 20 -17.5 31t-59.5 17l39 80q-97 22 -97 158v269h-72v62l76 5l10 136h69v-136h131v-67h-131v-270q0 -47 17 -70.5t58 -23.5q20 0 55 13l16 -62q-47 -16 -80 -18l-23 -52q73 -17 73 -71q0 -83 -165 -91z" />
    <glyph glyph-name="Tcaron" unicode="&#x164;" horiz-adv-x="536" 
d="M226 0v586h-198v70h480v-70h-198v-586h-84zM224 706l-105 113l36 26l110 -92h4l110 92l36 -26l-105 -113h-86z" />
    <glyph glyph-name="tcaron" unicode="&#x165;" horiz-adv-x="338" 
d="M235 -12q-139 0 -139 162v269h-72v62l76 5l10 136h69v-136h131v-67h-131v-270q0 -47 17 -70.5t58 -23.5q20 0 55 13l16 -62q-54 -18 -90 -18zM256 548l-4 212h59l-1 -57l-14 -155h-40z" />
    <glyph glyph-name="uni0166" unicode="&#x166;" horiz-adv-x="536" 
d="M226 0v313h-123v44l88 3h35v226h-198v70h480v-70h-198v-226h123v-47h-123v-313h-84z" />
    <glyph glyph-name="uni0167" unicode="&#x167;" horiz-adv-x="338" 
d="M24 231v43l72 5v140h-72v62l76 5l10 136h69v-136h131v-67h-131v-140h131v-48h-131v-82q0 -47 17 -70.5t58 -23.5q20 0 55 13l16 -62q-54 -18 -90 -18q-139 0 -139 162v81h-72z" />
    <glyph glyph-name="Utilde" unicode="&#x168;" horiz-adv-x="645" 
d="M323 -12q-109 0 -172.5 67t-63.5 216v385h83v-387q0 -208 153 -208q155 0 155 208v387h80v-385q0 -283 -235 -283zM398 709q-32 0 -59 17.5t-48.5 35.5t-40.5 18t-32 -17t-16 -49l-56 4q3 57 30 90t72 33q32 0 59 -17.5t48.5 -35.5t40.5 -18q40 0 48 66l56 -4
q-3 -58 -30 -90.5t-72 -32.5z" />
    <glyph glyph-name="utilde" unicode="&#x169;" horiz-adv-x="544" 
d="M224 -12q-149 0 -149 190v308h83v-297q0 -68 21.5 -99t69.5 -31q37 0 66 19t65 63v345h82v-486h-68l-7 76h-3q-75 -88 -160 -88zM344 577q-30 0 -56 21t-47.5 42t-39.5 21q-42 0 -47 -79l-55 3q2 62 27 99t74 37q30 0 56 -21t47.5 -42t40.5 -21q41 0 46 79l55 -4
q-2 -62 -27 -98.5t-74 -36.5z" />
    <glyph glyph-name="Umacron" unicode="&#x16a;" horiz-adv-x="645" 
d="M323 -12q-109 0 -172.5 67t-63.5 216v385h83v-387q0 -208 153 -208q155 0 155 208v387h80v-385q0 -283 -235 -283zM189 735v57h268v-57h-268z" />
    <glyph glyph-name="umacron" unicode="&#x16b;" horiz-adv-x="544" 
d="M224 -12q-149 0 -149 190v308h83v-297q0 -68 21.5 -99t69.5 -31q37 0 66 19t65 63v345h82v-486h-68l-7 76h-3q-75 -88 -160 -88zM136 601v57h266v-57h-266z" />
    <glyph glyph-name="Ubreve" unicode="&#x16c;" horiz-adv-x="645" 
d="M323 -12q-109 0 -172.5 67t-63.5 216v385h83v-387q0 -208 153 -208q155 0 155 208v387h80v-385q0 -283 -235 -283zM323 705q-66 0 -103 36t-43 93l50 8q6 -37 30.5 -60.5t65.5 -23.5t65.5 23.5t30.5 60.5l50 -8q-6 -57 -43 -93t-103 -36z" />
    <glyph glyph-name="ubreve" unicode="&#x16d;" horiz-adv-x="544" 
d="M224 -12q-149 0 -149 190v308h83v-297q0 -68 21.5 -99t69.5 -31q37 0 66 19t65 63v345h82v-486h-68l-7 76h-3q-75 -88 -160 -88zM272 571q-74 0 -113 44t-43 107l51 8q7 -43 33.5 -73.5t71.5 -30.5t71.5 30.5t33.5 73.5l51 -8q-4 -63 -43 -107t-113 -44z" />
    <glyph glyph-name="Uring" unicode="&#x16e;" horiz-adv-x="645" 
d="M323 -12q-109 0 -172.5 67t-63.5 216v385h83v-387q0 -208 153 -208q155 0 155 208v387h80v-385q0 -283 -235 -283zM323 699q-42 0 -69.5 25t-27.5 65q0 41 27.5 66t69.5 25t69.5 -25t27.5 -66q0 -40 -27.5 -65t-69.5 -25zM323 735q21 0 36 14.5t15 39.5t-15 39.5
t-36 14.5q-22 0 -37 -14.5t-15 -39.5t14.5 -39.5t37.5 -14.5z" />
    <glyph glyph-name="uring" unicode="&#x16f;" horiz-adv-x="544" 
d="M224 -12q-149 0 -149 190v308h83v-297q0 -68 21.5 -99t69.5 -31q37 0 66 19t65 63v345h82v-486h-68l-7 76h-3q-75 -88 -160 -88zM272 554q-50 0 -80 28t-30 71t30 70.5t80 27.5t80 -27.5t30 -70.5t-30 -71t-80 -28zM272 591q25 0 41 17t16 45q0 27 -16.5 44t-40.5 17
t-40.5 -17t-16.5 -44q0 -28 16 -45t41 -17z" />
    <glyph glyph-name="Uhungarumlaut" unicode="&#x170;" horiz-adv-x="645" 
d="M323 -12q-109 0 -172.5 67t-63.5 216v385h83v-387q0 -208 153 -208q155 0 155 208v387h80v-385q0 -283 -235 -283zM221 724l92 152l56 -32l-105 -141zM381 724l92 152l56 -32l-105 -141z" />
    <glyph glyph-name="uhungarumlaut" unicode="&#x171;" horiz-adv-x="544" 
d="M224 -12q-149 0 -149 190v308h83v-297q0 -68 21.5 -99t69.5 -31q37 0 66 19t65 63v345h82v-486h-68l-7 76h-3q-75 -88 -160 -88zM221 568l-45 21l86 172l59 -28zM372 568l-46 21l87 172l58 -28z" />
    <glyph glyph-name="Uogonek" unicode="&#x172;" horiz-adv-x="645" 
d="M350 -212q-42 0 -69 23t-27 64q0 9 1 17.5t4.5 16.5t5.5 14t7.5 14t8 12t10 12t9 9.5t10.5 9.5l8 9q-231 5 -231 282v385h83v-387q0 -208 153 -208q155 0 155 208v387h80v-385q0 -64 -11 -111t-34 -78t-49 -50.5t-66 -38.5q-37 -18 -58 -46t-21 -54q0 -22 14 -34t34 -12
q21 0 40 14l23 -45q-35 -28 -80 -28z" />
    <glyph glyph-name="uogonek" unicode="&#x173;" horiz-adv-x="544" 
d="M405 -206q-40 0 -65.5 22t-25.5 63q0 67 81 125l-8 72h-3q-75 -88 -160 -88q-149 0 -149 190v308h83v-297q0 -69 21 -99.5t70 -30.5q37 0 66 19t65 63v345h82v-486q-87 -43 -87 -105q0 -22 13.5 -34t32.5 -12q21 0 41 13l21 -41q-34 -27 -78 -27z" />
    <glyph glyph-name="Wcircumflex" unicode="&#x174;" horiz-adv-x="786" 
d="M162 0l-139 656h86l69 -357q6 -35 19 -105.5t19 -106.5h4q8 39 24 111t22 101l91 357h76l91 -357q8 -34 48 -212h4q24 142 37 212l69 357h80l-136 -656h-100l-99 395q-17 71 -32 149h-4q-6 -29 -17.5 -80.5t-15.5 -68.5l-97 -395h-99zM245 725l105 113h86l105 -113
l-36 -26l-110 93h-4l-110 -93z" />
    <glyph glyph-name="wcircumflex" unicode="&#x175;" horiz-adv-x="718" 
d="M159 0l-135 486h84l72 -281q12 -51 29 -135h4l33 135l75 281h80l76 -281q16 -61 34 -135h4q6 24 30 135l71 281h78l-130 -486h-100l-70 261q-7 26 -17.5 73t-15.5 67h-4q-23 -101 -34 -141l-68 -260h-96zM205 600l114 140h82l114 -140l-35 -32l-118 113h-4l-118 -113z
" />
    <glyph glyph-name="Ycircumflex" unicode="&#x176;" horiz-adv-x="476" 
d="M196 0v254l-197 402h89l85 -185q46 -105 63 -143h4q57 122 66 143l84 185h87l-197 -402v-254h-84zM90 725l105 113h86l105 -113l-36 -26l-110 93h-4l-110 -93z" />
    <glyph glyph-name="ycircumflex" unicode="&#x177;" horiz-adv-x="467" 
d="M90 -209q-30 0 -57 10l16 65q23 -7 37 -7q75 0 110 104l11 36l-195 487h85l99 -269q20 -56 47 -137h4q8 26 23 76t18 61l87 269h80l-183 -526q-28 -80 -70.5 -124.5t-111.5 -44.5zM88 600l114 140h82l114 -140l-35 -32l-118 113h-4l-118 -113z" />
    <glyph glyph-name="Ydieresis" unicode="&#x178;" horiz-adv-x="476" 
d="M196 0v254l-197 402h89l85 -185q46 -105 63 -143h4q57 122 66 143l84 185h87l-197 -402v-254h-84zM135 715q-21 0 -35 14t-14 35q0 22 14 35.5t35 13.5q22 0 35.5 -13.5t13.5 -35.5q0 -21 -13.5 -35t-35.5 -14zM341 715q-22 0 -35.5 14t-13.5 35q0 22 13.5 35.5
t35.5 13.5q21 0 35 -13.5t14 -35.5q0 -21 -14 -35t-35 -14z" />
    <glyph glyph-name="Zacute" unicode="&#x179;" horiz-adv-x="539" 
d="M45 0v50l345 536h-314v70h418v-49l-346 -536h349v-71h-452zM264 697l-37 42l142 128l47 -55z" />
    <glyph glyph-name="zacute" unicode="&#x17a;" horiz-adv-x="425" 
d="M31 0v44l256 375h-228v67h332v-44l-256 -375h264v-67h-368zM215 573l-42 41l141 167l58 -55z" />
    <glyph glyph-name="Zdotaccent" unicode="&#x17b;" horiz-adv-x="539" 
d="M45 0v50l345 536h-314v70h418v-49l-346 -536h349v-71h-452zM281 714q-24 0 -40.5 15t-16.5 39q0 23 16.5 38t40.5 15t40.5 -15t16.5 -38q0 -24 -16.5 -39t-40.5 -15z" />
    <glyph glyph-name="zdotaccent" unicode="&#x17c;" horiz-adv-x="425" 
d="M31 0v44l256 375h-228v67h332v-44l-256 -375h264v-67h-368zM229 586q-23 0 -38.5 15t-15.5 39q0 23 15.5 38.5t38.5 15.5t38.5 -15.5t15.5 -38.5q0 -24 -15.5 -39t-38.5 -15z" />
    <glyph glyph-name="Zcaron" unicode="&#x17d;" horiz-adv-x="539" 
d="M45 0v50l345 536h-314v70h418v-49l-346 -536h349v-71h-452zM238 706l-105 113l36 26l110 -92h4l110 92l36 -26l-105 -113h-86z" />
    <glyph glyph-name="zcaron" unicode="&#x17e;" horiz-adv-x="425" 
d="M31 0v44l256 375h-228v67h332v-44l-256 -375h264v-67h-368zM188 574l-114 140l35 32l118 -113h4l118 113l35 -32l-114 -140h-82z" />
    <glyph glyph-name="uni0180" unicode="&#x180;" horiz-adv-x="544" 
d="M297 -12q-71 0 -139 62h-3l-7 -50h-66v571h-74v43l74 5v93h82v-93h182v-48h-182v-93l-2 -87q79 68 152 68q93 0 143 -61.5t50 -165.5q0 -111 -61.5 -177.5t-148.5 -66.5zM283 57q61 0 100 48t39 126q0 73 -31 116t-97 43q-60 0 -130 -67v-215q59 -51 119 -51z" />
    <glyph glyph-name="uni018F" unicode="&#x18f;" horiz-adv-x="658" 
d="M327 -12q-126 0 -197.5 90.5t-71.5 246.5q0 7 2 25h464q-5 121 -55.5 185t-143.5 64t-160 -65l-41 57q80 77 207 77q129 0 202 -88t73 -250t-75 -252t-204 -90zM327 57q84 0 135.5 59t59.5 170h-379q4 -108 54 -168.5t130 -60.5z" />
    <glyph glyph-name="uni0192" unicode="&#x192;" horiz-adv-x="497" 
d="M91 -97q-46 0 -73 15l15 62q23 -10 50 -10q45 0 66 37.5t30 118.5l24 219h-87v59l69 4h25l6 56q12 103 51 153.5t117 50.5q40 0 78 -18l-18 -63q-33 14 -56 14q-77 0 -92 -130l-7 -63h126v-63h-133l-26 -237q-11 -99 -49 -152t-116 -53z" />
    <glyph glyph-name="uni0193" unicode="&#x193;" horiz-adv-x="617" 
d="M348 -12q-132 0 -214 91t-82 249q0 156 84 248t217 92q49 0 91 -13q-6 19 -6 40q0 48 31 78.5t82 30.5q27 0 62 -13l-16 -63q-25 9 -34 9q-25 0 -39 -15.5t-14 -38.5q0 -34 32 -79l-46 -55q-61 46 -141 46q-99 0 -158 -71.5t-59 -193.5q0 -125 57 -197t161 -72
q76 0 118 39v171h-139v69h215v-276q-73 -76 -202 -76z" />
    <glyph glyph-name="Ohorn" unicode="&#x1a0;" horiz-adv-x="664" 
d="M335 -12q-125 0 -202.5 93t-77.5 250q0 155 77.5 246t202.5 91q71 0 130 -31q81 16 81 82q0 30 -14 58l65 28q23 -39 23 -80q0 -94 -107 -122q103 -93 103 -272q0 -157 -78 -250t-203 -93zM335 61q88 0 141 73.5t53 196.5q0 122 -53 193t-141 71t-141 -71t-53 -193
q0 -123 53 -196.5t141 -73.5z" />
    <glyph glyph-name="ohorn" unicode="&#x1a1;" horiz-adv-x="542" 
d="M271 -12q-94 0 -159.5 69t-65.5 185q0 118 65.5 187t159.5 69q50 0 95 -21q86 17 86 95q0 28 -15 55l64 30q23 -39 23 -79q0 -55 -31.5 -87.5t-78.5 -46.5q82 -71 82 -202q0 -116 -65.5 -185t-159.5 -69zM271 56q63 0 101.5 51.5t38.5 134.5q0 84 -38.5 136t-101.5 52
q-62 0 -101 -52t-39 -136q0 -83 39 -134.5t101 -51.5z" />
    <glyph glyph-name="Uhorn" unicode="&#x1af;" horiz-adv-x="659" 
d="M323 -12q-109 0 -172.5 67t-63.5 216v385h83v-387q0 -208 153 -208q155 0 155 208v387h33q44 6 67 24.5t23 58.5q0 31 -15 58l65 28q23 -36 23 -80q0 -98 -116 -125v-349q0 -283 -235 -283z" />
    <glyph glyph-name="uhorn" unicode="&#x1b0;" horiz-adv-x="544" 
d="M224 -12q-149 0 -149 190v308h83v-297q0 -68 21.5 -99t69.5 -31q37 0 66 19t65 63v345h21q84 13 84 96q0 27 -14 55l64 30q23 -39 23 -79q0 -102 -96 -133v-455h-68l-7 76h-3q-75 -88 -160 -88z" />
    <glyph glyph-name="uni01C2" unicode="&#x1c2;" horiz-adv-x="288" 
d="M6 331v43l77 4h37v372h58v-372h103v-47h-103v-123h103v-47h-103v-411h-58v411h-114v42l77 5h37v123h-114z" />
    <glyph glyph-name="uni01CD" unicode="&#x1cd;" horiz-adv-x="544" 
d="M203 367l-31 -100h197l-31 100q-31 94 -66 221h-4q-31 -117 -65 -221zM3 0l222 656h94l222 -656h-89l-62 200h-239l-63 -200h-85zM227 706l-105 113l36 26l110 -92h4l110 92l36 -26l-105 -113h-86z" />
    <glyph glyph-name="uni01CE" unicode="&#x1ce;" horiz-adv-x="504" 
d="M194 -12q-62 0 -102 37t-40 101q0 79 71 122t227 60q0 122 -100 122q-69 0 -145 -52l-32 57q98 63 191 63q86 0 127.5 -52.5t41.5 -147.5v-298h-68l-7 58h-3q-85 -70 -161 -70zM218 54q59 0 132 65v135q-118 -15 -168 -44.5t-50 -77.5q0 -39 24 -58.5t62 -19.5zM222 574
l-114 140l35 32l118 -113h4l118 113l35 -32l-114 -140h-82z" />
    <glyph glyph-name="uni01CF" unicode="&#x1cf;" horiz-adv-x="263" 
d="M90 0v656h83v-656h-83zM88 706l-105 113l36 26l110 -92h4l110 92l36 -26l-105 -113h-86z" />
    <glyph glyph-name="uni01D0" unicode="&#x1d0;" horiz-adv-x="246" 
d="M82 0v486h82v-486h-82zM82 574l-114 140l35 32l118 -113h4l118 113l35 -32l-114 -140h-82z" />
    <glyph glyph-name="uni01D1" unicode="&#x1d1;" horiz-adv-x="664" 
d="M332 -12q-125 0 -202.5 93t-77.5 250q0 155 77.5 246t202.5 91t203 -91t78 -246q0 -157 -78 -250t-203 -93zM332 61q88 0 141 73.5t53 196.5q0 122 -53 193t-141 71t-141 -71t-53 -193q0 -123 53 -196.5t141 -73.5zM289 706l-105 113l36 26l110 -92h4l110 92l36 -26
l-105 -113h-86z" />
    <glyph glyph-name="uni01D2" unicode="&#x1d2;" horiz-adv-x="542" 
d="M271 -12q-94 0 -159.5 69t-65.5 185q0 118 65.5 187t159.5 69t159.5 -69t65.5 -187q0 -116 -65.5 -185t-159.5 -69zM271 56q63 0 101.5 51.5t38.5 134.5q0 84 -38.5 136t-101.5 52q-62 0 -101 -52t-39 -136q0 -83 39 -134.5t101 -51.5zM230 574l-114 140l35 32l118 -113
h4l118 113l35 -32l-114 -140h-82z" />
    <glyph glyph-name="uni01D3" unicode="&#x1d3;" horiz-adv-x="645" 
d="M323 -12q-109 0 -172.5 67t-63.5 216v385h83v-387q0 -208 153 -208q155 0 155 208v387h80v-385q0 -283 -235 -283zM280 706l-105 113l36 26l110 -92h4l110 92l36 -26l-105 -113h-86z" />
    <glyph glyph-name="uni01D4" unicode="&#x1d4;" horiz-adv-x="544" 
d="M224 -12q-149 0 -149 190v308h83v-297q0 -68 21.5 -99t69.5 -31q37 0 66 19t65 63v345h82v-486h-68l-7 76h-3q-75 -88 -160 -88zM231 574l-114 140l35 32l118 -113h4l118 113l35 -32l-114 -140h-82z" />
    <glyph glyph-name="uni01D5" unicode="&#x1d5;" horiz-adv-x="645" 
d="M323 -12q-109 0 -172.5 67t-63.5 216v385h83v-387q0 -208 153 -208q155 0 155 208v387h80v-385q0 -283 -235 -283zM220 715q-20 0 -32.5 13t-12.5 33q0 19 12.5 32t32.5 13t33 -13t13 -32q0 -20 -13 -33t-33 -13zM189 861v46h268v-46h-268zM426 715q-20 0 -33 13t-13 33
q0 19 13 32t33 13t32.5 -13t12.5 -32q0 -20 -12.5 -33t-32.5 -13z" />
    <glyph glyph-name="uni01D6" unicode="&#x1d6;" horiz-adv-x="544" 
d="M224 -12q-149 0 -149 190v308h83v-297q0 -68 21.5 -99t69.5 -31q37 0 66 19t65 63v345h82v-486h-68l-7 76h-3q-75 -88 -160 -88zM176 588q-19 0 -32.5 13t-13.5 32t13 32.5t33 13.5q19 0 32 -13t13 -33q0 -19 -13 -32t-32 -13zM138 750v47h267v-47h-267zM368 588
q-19 0 -32 13t-13 32q0 20 13 33t32 13q20 0 33 -13.5t13 -32.5t-13.5 -32t-32.5 -13z" />
    <glyph glyph-name="uni01D7" unicode="&#x1d7;" horiz-adv-x="645" 
d="M323 -12q-109 0 -172.5 67t-63.5 216v385h83v-387q0 -208 153 -208q155 0 155 208v387h80v-385q0 -283 -235 -283zM220 715q-20 0 -32.5 13t-12.5 33q0 19 12.5 32t32.5 13t33 -13t13 -32q0 -20 -13 -33t-33 -13zM285 849l95 119l53 -36l-111 -109zM426 715q-20 0 -33 13
t-13 33q0 19 13 32t33 13t32.5 -13t12.5 -32q0 -20 -12.5 -33t-32.5 -13z" />
    <glyph glyph-name="uni01D8" unicode="&#x1d8;" horiz-adv-x="544" 
d="M224 -12q-149 0 -149 190v308h83v-297q0 -68 21.5 -99t69.5 -31q37 0 66 19t65 63v345h82v-486h-68l-7 76h-3q-75 -88 -160 -88zM265 705l-35 24l82 115l49 -34zM176 588q-19 0 -32.5 13t-13.5 32t13 32.5t33 13.5q19 0 32 -13t13 -33q0 -19 -13 -32t-32 -13zM368 588
q-19 0 -32 13t-13 32q0 20 13 33t32 13q20 0 33 -13.5t13 -32.5t-13.5 -32t-32.5 -13z" />
    <glyph glyph-name="uni01D9" unicode="&#x1d9;" horiz-adv-x="645" 
d="M323 -12q-109 0 -172.5 67t-63.5 216v385h83v-387q0 -208 153 -208q155 0 155 208v387h80v-385q0 -283 -235 -283zM287 839l-99 96l33 27l100 -75h4l100 75l33 -27l-99 -96h-72zM220 715q-20 0 -32.5 13t-12.5 33q0 19 12.5 32t32.5 13t33 -13t13 -32q0 -20 -13 -33
t-33 -13zM426 715q-20 0 -33 13t-13 33q0 19 13 32t33 13t32.5 -13t12.5 -32q0 -20 -12.5 -33t-32.5 -13z" />
    <glyph glyph-name="uni01DA" unicode="&#x1da;" horiz-adv-x="544" 
d="M224 -12q-149 0 -149 190v308h83v-297q0 -68 21.5 -99t69.5 -31q37 0 66 19t65 63v345h82v-486h-68l-7 76h-3q-75 -88 -160 -88zM174 840l96 -73h4l96 73l30 -28l-94 -92h-68l-94 92zM176 588q-19 0 -32.5 13t-13.5 32t13 32.5t33 13.5q19 0 32 -13t13 -33q0 -19 -13 -32
t-32 -13zM368 588q-19 0 -32 13t-13 32q0 20 13 33t32 13q20 0 33 -13.5t13 -32.5t-13.5 -32t-32.5 -13z" />
    <glyph glyph-name="uni01DB" unicode="&#x1db;" horiz-adv-x="645" 
d="M323 -12q-109 0 -172.5 67t-63.5 216v385h83v-387q0 -208 153 -208q155 0 155 208v387h80v-385q0 -283 -235 -283zM361 849l-37 -26l-111 109l53 36zM220 715q-20 0 -32.5 13t-12.5 33q0 19 12.5 32t32.5 13t33 -13t13 -32q0 -20 -13 -33t-33 -13zM426 715q-20 0 -33 13
t-13 33q0 19 13 32t33 13t32.5 -13t12.5 -32q0 -20 -12.5 -33t-32.5 -13z" />
    <glyph glyph-name="uni01DC" unicode="&#x1dc;" horiz-adv-x="544" 
d="M224 -12q-149 0 -149 190v308h83v-297q0 -68 21.5 -99t69.5 -31q37 0 66 19t65 63v345h82v-486h-68l-7 76h-3q-75 -88 -160 -88zM279 705l-96 105l49 34l82 -115zM176 588q-19 0 -32.5 13t-13.5 32t13 32.5t33 13.5q19 0 32 -13t13 -33q0 -19 -13 -32t-32 -13zM368 588
q-19 0 -32 13t-13 32q0 20 13 33t32 13q20 0 33 -13.5t13 -32.5t-13.5 -32t-32.5 -13z" />
    <glyph glyph-name="uni01E2" unicode="&#x1e2;" horiz-adv-x="822" 
d="M290 376l-61 -118h172v332h-4q-53 -107 -107 -214zM8 0l344 656h411v-70h-278v-206h232v-71h-232v-238h288v-71h-372v191h-206l-99 -191h-88zM430 743v57h268v-57h-268z" />
    <glyph glyph-name="uni01E3" unicode="&#x1e3;" horiz-adv-x="785" 
d="M201 -12q-63 0 -103 37t-40 101q0 79 70.5 122t223.5 60q0 122 -99 122q-65 0 -141 -52l-33 57q98 63 184 63q106 0 139 -103q62 103 160 103q88 0 136.5 -61.5t48.5 -167.5q0 -28 -3 -46h-315q3 -75 45.5 -121.5t105.5 -46.5q55 0 118 40l30 -57q-78 -50 -158 -50
q-101 0 -171 91q-102 -91 -198 -91zM224 54q35 0 75 20t72 55q-17 39 -19 100v25q-113 -15 -163 -44.5t-50 -77.5q0 -39 23.5 -58.5t61.5 -19.5zM429 278h246q0 75 -29.5 115t-85.5 40q-51 0 -87.5 -42.5t-43.5 -112.5zM280 601v57h266v-57h-266z" />
    <glyph glyph-name="Gcaron" unicode="&#x1e6;" horiz-adv-x="617" 
d="M348 -12q-132 0 -214 91t-82 249q0 156 84 248t217 92q112 0 189 -81l-46 -54q-60 62 -141 62q-99 0 -158 -71.5t-59 -193.5q0 -125 57 -197t161 -72q76 0 118 39v171h-139v69h215v-276q-73 -76 -202 -76zM311 706l-105 113l36 26l110 -92h4l110 92l36 -26l-105 -113h-86
z" />
    <glyph glyph-name="gcaron" unicode="&#x1e7;" horiz-adv-x="504" 
d="M246 -224q-91 0 -146 34.5t-55 96.5t71 110v4q-43 27 -43 79q0 54 53 90v4q-63 51 -63 131q0 77 53 125t130 48q38 0 69 -12h169v-63h-100q40 -38 40 -100q0 -76 -51 -122.5t-127 -46.5q-39 0 -73 17q-31 -27 -31 -58q0 -53 86 -53h94q86 0 128 -28t42 -88
q0 -70 -68 -119t-178 -49zM246 209q43 0 73 32t30 84t-29.5 82.5t-73.5 30.5t-73.5 -30.5t-29.5 -82.5t30 -84t73 -32zM258 -167q67 0 110.5 29.5t43.5 69.5q0 33 -24.5 46.5t-73.5 13.5h-84q-35 0 -63 8q-50 -36 -50 -82q0 -39 37.5 -62t103.5 -23zM227 574l-114 140l35 32
l118 -113h4l118 113l35 -32l-114 -140h-82z" />
    <glyph glyph-name="uni01EA" unicode="&#x1ea;" horiz-adv-x="664" 
d="M361 -212q-41 0 -68 23t-27 64q0 63 61 114q-127 3 -201 95.5t-74 246.5q0 155 77.5 246t202.5 91t203 -91t78 -246q0 -130 -51.5 -210.5t-153.5 -127.5q-38 -17 -58 -44.5t-20 -55.5q0 -22 14 -34t34 -12q21 0 40 14l23 -45q-35 -28 -80 -28zM332 61q88 0 141 73.5
t53 196.5q0 122 -53 193t-141 71t-141 -71t-53 -193q0 -123 53 -196.5t141 -73.5z" />
    <glyph glyph-name="uni01EB" unicode="&#x1eb;" horiz-adv-x="542" 
d="M295 -206q-39 0 -64.5 22.5t-25.5 62.5q0 64 56 110q-91 5 -153 73t-62 180q0 118 65.5 187t159.5 69t159.5 -69t65.5 -187q0 -96 -41 -153.5t-118 -92.5q-33 -15 -52 -43.5t-19 -57.5q0 -22 13.5 -34t32.5 -12q20 0 41 13l21 -41q-34 -27 -79 -27zM271 56
q63 0 101.5 51.5t38.5 134.5q0 84 -38.5 136t-101.5 52q-62 0 -101 -52t-39 -136q0 -83 39 -134.5t101 -51.5z" />
    <glyph glyph-name="uni01F4" unicode="&#x1f4;" horiz-adv-x="617" 
d="M348 -12q-132 0 -214 91t-82 249q0 156 84 248t217 92q112 0 189 -81l-46 -54q-60 62 -141 62q-99 0 -158 -71.5t-59 -193.5q0 -125 57 -197t161 -72q76 0 118 39v171h-139v69h215v-276q-73 -76 -202 -76zM336 697l-37 42l142 128l47 -55z" />
    <glyph glyph-name="uni01F5" unicode="&#x1f5;" horiz-adv-x="504" 
d="M246 -224q-91 0 -146 34.5t-55 96.5t71 110v4q-43 27 -43 79q0 54 53 90v4q-63 51 -63 131q0 77 53 125t130 48q38 0 69 -12h169v-63h-100q40 -38 40 -100q0 -76 -51 -122.5t-127 -46.5q-39 0 -73 17q-31 -27 -31 -58q0 -53 86 -53h94q86 0 128 -28t42 -88
q0 -70 -68 -119t-178 -49zM246 209q43 0 73 32t30 84t-29.5 82.5t-73.5 30.5t-73.5 -30.5t-29.5 -82.5t30 -84t73 -32zM258 -167q67 0 110.5 29.5t43.5 69.5q0 33 -24.5 46.5t-73.5 13.5h-84q-35 0 -63 8q-50 -36 -50 -82q0 -39 37.5 -62t103.5 -23zM254 573l-42 41l141 167
l58 -55z" />
    <glyph glyph-name="uni01F8" unicode="&#x1f8;" horiz-adv-x="647" 
d="M90 0v656h86l237 -412l71 -136h4q-10 165 -10 209v339h79v-656h-86l-238 413l-71 135h-4q11 -145 11 -205v-343h-79zM344 697l-152 115l47 55l142 -128z" />
    <glyph glyph-name="uni01F9" unicode="&#x1f9;" horiz-adv-x="547" 
d="M82 0v486h68l7 -70h3q82 82 163 82q148 0 148 -190v-308h-82v297q0 68 -22 99t-70 31q-35 0 -64 -17.5t-69 -57.5v-352h-82zM305 573l-157 153l58 55l141 -167z" />
    <glyph glyph-name="uni01FC" unicode="&#x1fc;" horiz-adv-x="822" 
d="M290 376l-61 -118h172v332h-4q-53 -107 -107 -214zM8 0l344 656h411v-70h-278v-206h232v-71h-232v-238h288v-71h-372v191h-206l-99 -191h-88zM547 705l-37 42l142 128l47 -55z" />
    <glyph glyph-name="uni01FD" unicode="&#x1fd;" horiz-adv-x="785" 
d="M201 -12q-63 0 -103 37t-40 101q0 79 70.5 122t223.5 60q0 122 -99 122q-65 0 -141 -52l-33 57q98 63 184 63q106 0 139 -103q62 103 160 103q88 0 136.5 -61.5t48.5 -167.5q0 -28 -3 -46h-315q3 -75 45.5 -121.5t105.5 -46.5q55 0 118 40l30 -57q-78 -50 -158 -50
q-101 0 -171 91q-102 -91 -198 -91zM224 54q35 0 75 20t72 55q-17 39 -19 100v25q-113 -15 -163 -44.5t-50 -77.5q0 -39 23.5 -58.5t61.5 -19.5zM429 278h246q0 75 -29.5 115t-85.5 40q-51 0 -87.5 -42.5t-43.5 -112.5zM399 573l-42 41l141 167l58 -55z" />
    <glyph glyph-name="uni0218" unicode="&#x218;" horiz-adv-x="534" 
d="M272 -12q-136 0 -230 97l50 58q79 -82 181 -82q64 0 100.5 29t36.5 78q0 24 -7 41.5t-25.5 31.5t-32.5 21.5t-44 21.5l-94 41q-133 56 -133 169q0 75 58.5 124.5t147.5 49.5q115 0 194 -81l-45 -54q-65 62 -149 62q-55 0 -88.5 -26t-33.5 -70q0 -22 8.5 -39.5t27.5 -31
t33 -20.5t40 -18l93 -40q65 -28 100 -68t35 -107q0 -80 -61 -133.5t-162 -53.5zM186 -226l-8 40q61 4 85 15.5t24 32.5q0 36 -71 42l18 38q64 -7 90.5 -25t26.5 -52q0 -83 -165 -91z" />
    <glyph glyph-name="uni0219" unicode="&#x219;" horiz-adv-x="419" 
d="M209 -12q-100 0 -181 67l41 55q72 -58 143 -58q46 0 71 21.5t25 54.5q0 18 -9 32t-28 25.5t-33 18t-41 16.5q-32 11 -53 21t-44.5 27t-35.5 40t-12 52q0 60 45 99t122 39q83 0 151 -55l-39 -52q-57 43 -111 43q-43 0 -66 -20t-23 -50q0 -20 16.5 -36.5t31 -23.5t50.5 -20
q7 -3 10 -4q28 -11 43 -17t38.5 -19.5t35.5 -27t21.5 -35t9.5 -48.5q0 -62 -47.5 -103.5t-130.5 -41.5zM136 -226l-8 40q61 4 85 15.5t24 32.5q0 36 -71 42l18 38q64 -7 90.5 -25t26.5 -52q0 -83 -165 -91z" />
    <glyph glyph-name="uni021A" unicode="&#x21a;" horiz-adv-x="536" 
d="M226 0v586h-198v70h480v-70h-198v-586h-84zM182 -226l-8 40q61 4 85 15.5t24 32.5q0 36 -71 42l18 38q64 -7 90.5 -25t26.5 -52q0 -83 -165 -91z" />
    <glyph glyph-name="uni021B" unicode="&#x21b;" horiz-adv-x="338" 
d="M235 -12q-139 0 -139 162v269h-72v62l76 5l10 136h69v-136h131v-67h-131v-270q0 -47 17 -70.5t58 -23.5q20 0 55 13l16 -62q-54 -18 -90 -18zM126 -226l-8 40q61 4 85 15.5t24 32.5q0 36 -71 42l18 38q64 -7 90.5 -25t26.5 -52q0 -83 -165 -91z" />
    <glyph glyph-name="uni0237" unicode="&#x237;" horiz-adv-x="247" 
d="M32 -217q-40 0 -72 13l17 62q24 -8 46 -8q34 0 47 23.5t13 71.5v541h82v-541q0 -162 -133 -162z" />
    <glyph glyph-name="uni0243" unicode="&#x243;" horiz-adv-x="603" 
d="M107 0v177h-77v43l77 4v432h195q105 0 165 -38.5t60 -119.5q0 -50 -29 -86.5t-85 -51.5v-4q152 -24 152 -160q0 -96 -67.5 -146t-180.5 -50h-210zM190 380h98q159 0 159 112q0 102 -156 102h-101v-214zM190 63h115q86 0 132.5 34.5t46.5 102.5q0 125 -179 125h-115v-101
h152v-47h-152v-114z" />
    <glyph glyph-name="uni0250" unicode="&#x250;" horiz-adv-x="512" 
d="M270 -12q-100 0 -147.5 55t-47.5 153v290h68l7 -68h2q78 80 173 80q59 0 95 -33.5t36 -93.5q0 -83 -72 -129.5t-227 -63.5q1 -52 29.5 -87t94.5 -35q64 0 138 52l32 -57q-93 -63 -181 -63zM157 232q118 15 168 46t50 82q0 36 -21.5 54t-55.5 18q-69 0 -141 -76v-124z" />
    <glyph glyph-name="uni0251" unicode="&#x251;" horiz-adv-x="555" 
d="M248 -12q-93 0 -147 67t-54 187q0 114 62.5 185t149.5 71q71 0 138 -59h2l7 47h67v-486h-68l-7 57h-3q-71 -69 -147 -69zM266 57q64 0 124 67v254q-57 51 -118 51q-59 0 -99.5 -52t-40.5 -134q0 -87 35.5 -136.5t98.5 -49.5z" />
    <glyph glyph-name="uni0252" unicode="&#x252;" horiz-adv-x="555" 
d="M297 -12q-68 0 -139 59h-3l-6 -47h-67v486h68l7 -57h3q80 69 155 69q92 0 142 -66.5t50 -181.5q0 -119 -61.5 -190.5t-148.5 -71.5zM283 57q61 0 100 52.5t39 140.5q0 179 -128 179q-56 0 -130 -66v-255q61 -51 119 -51z" />
    <glyph glyph-name="uni0253" unicode="&#x253;" horiz-adv-x="555" 
d="M297 -12q-71 0 -139 60h-3l-7 -48h-66v537q0 86 43 136.5t126 50.5q43 0 82 -16l-19 -63q-27 12 -55 12q-92 0 -95 -121l-2 -113q79 68 152 68q93 0 143 -65.5t50 -178.5q0 -118 -61.5 -188.5t-148.5 -70.5zM283 57q61 0 100 51.5t39 137.5q0 176 -128 176
q-60 0 -130 -67v-247q59 -51 119 -51z" />
    <glyph glyph-name="uni0254" unicode="&#x254;" horiz-adv-x="456" 
d="M182 -12q-89 0 -157 62l35 55q56 -49 114 -49q66 0 108.5 51.5t42.5 134.5q0 84 -40.5 136t-102.5 52q-60 0 -106 -43l-42 54q66 57 157 57q92 0 155.5 -68.5t63.5 -187.5q0 -117 -65 -185.5t-163 -68.5z" />
    <glyph glyph-name="uni0255" unicode="&#x255;" horiz-adv-x="456" 
d="M284 54q36 0 59.5 15t23.5 38q0 18 -13.5 31.5t-38.5 13.5q-55 0 -114 -72q37 -26 83 -26zM123 -69l-66 28q24 60 51 103q-62 70 -62 180q0 118 68 187t166 69q79 0 142 -57l-40 -51q-48 43 -99 43q-68 0 -112 -53t-44 -138q0 -66 30 -115q78 84 163 84q53 0 83.5 -28.5
t30.5 -74.5q0 -51 -41.5 -85.5t-110.5 -34.5q-68 0 -121 32q-23 -42 -38 -89z" />
    <glyph glyph-name="uni0256" unicode="&#x256;" horiz-adv-x="555" 
d="M514 -183q-121 0 -121 137l1 102q-72 -68 -146 -68q-93 0 -147 67t-54 187q0 115 62 185.5t149 70.5q67 0 136 -56l-4 83v199h83v-752q0 -44 11 -66t39 -22q13 0 36 9l16 -63q-26 -13 -61 -13zM266 57q64 0 124 67v254q-57 51 -118 51q-59 0 -99.5 -52t-40.5 -134
q0 -87 35.5 -136.5t98.5 -49.5z" />
    <glyph glyph-name="uni0257" unicode="&#x257;" horiz-adv-x="555" 
d="M248 -12q-93 0 -147 67t-54 187q0 115 62 185.5t149 70.5q67 0 136 -56l-1 133q0 72 32.5 111.5t97.5 39.5q31 0 56 -10l-16 -63q-18 6 -31 6q-59 0 -59 -92v-567h-68l-7 57h-3q-71 -69 -147 -69zM266 57q64 0 124 67v254q-57 51 -118 51q-59 0 -99.5 -52t-40.5 -134
q0 -87 35.5 -136.5t98.5 -49.5z" />
    <glyph glyph-name="uni0258" unicode="&#x258;" horiz-adv-x="496" 
d="M221 -12q-86 0 -164 50l29 54q59 -38 125 -38q70 0 111.5 45.5t45.5 123.5h-327q-4 24 -4 47q0 104 55.5 166t148.5 62q90 0 149.5 -69.5t59.5 -186.5t-64 -185.5t-165 -68.5zM110 282h259q-7 72 -41 111.5t-89 39.5q-58 0 -93.5 -39.5t-35.5 -111.5z" />
    <glyph glyph-name="uni0259" unicode="&#x259;" horiz-adv-x="496" 
d="M238 -12q-93 0 -147 63t-54 171q0 24 4 48h327q-4 74 -42 118.5t-103 44.5q-62 0 -126 -42l-29 57q73 50 168 50q94 0 154 -68.5t60 -185.5q0 -116 -60.5 -186t-151.5 -70zM236 54q56 0 91 41t42 116h-259q0 -77 33.5 -117t92.5 -40z" />
    <glyph glyph-name="uni025A" unicode="&#x25a;" horiz-adv-x="648" 
d="M249 -12q-94 0 -149 59.5t-63 149.5l323 132q-34 104 -137 104q-62 0 -124 -42l-30 57q73 50 163 50q70 0 122 -36.5t77 -103.5l81 33l44 -17q4 -54 15.5 -72.5t34.5 -18.5q21 0 40 15l22 -43q-33 -25 -66 -25t-59.5 22.5t-36.5 73.5l-60 -24q5 -33 5 -63
q0 -106 -56 -178.5t-146 -72.5zM247 53q57 0 91.5 51.5t34.5 127.5q0 15 -2 39l-258 -105q10 -53 46 -83t88 -30z" />
    <glyph glyph-name="uni025B" unicode="&#x25b;" horiz-adv-x="440" 
d="M249 -12q-85 0 -142 40t-57 106q0 49 30.5 79t77.5 43v4q-39 13 -60.5 42.5t-21.5 64.5q0 64 50.5 97.5t126.5 33.5q80 0 147 -48l-33 -55q-59 38 -112 38q-42 0 -69.5 -20t-27.5 -56q0 -34 28.5 -54.5t84.5 -20.5h55v-59h-70q-59 0 -91.5 -21t-32.5 -61t35 -63.5
t91 -23.5q65 0 126 44l35 -55q-77 -55 -170 -55z" />
    <glyph glyph-name="uni025C" unicode="&#x25c;" horiz-adv-x="456" 
d="M210 -12q-95 0 -173 55l35 55q62 -44 126 -44q56 0 91 23.5t35 63.5t-32 61t-92 21h-69v59h54q56 0 84.5 20.5t28.5 54.5q0 36 -25.5 56t-67.5 20q-57 0 -116 -38l-33 55q70 48 155 48q73 0 121 -33.5t48 -97.5q0 -35 -21.5 -64.5t-60.5 -42.5v-4q47 -13 77.5 -43
t30.5 -79q0 -66 -56 -106t-140 -40z" />
    <glyph glyph-name="uni025E" unicode="&#x25e;" horiz-adv-x="546" 
d="M259 -12q-90 0 -149.5 40t-59.5 106q0 49 30.5 79t77.5 43v4q-39 13 -60.5 42.5t-21.5 64.5q0 64 50.5 97.5t129.5 33.5q106 0 175.5 -67t69.5 -189q0 -121 -68 -187.5t-174 -66.5zM260 54q73 0 114.5 49t41.5 139q0 91 -42.5 141t-116.5 50q-44 0 -71.5 -20t-27.5 -56
q0 -34 27.5 -54.5t81.5 -20.5h27v-59h-42q-58 0 -89 -21t-31 -61t34.5 -63.5t93.5 -23.5z" />
    <glyph glyph-name="uni025F" unicode="&#x25f;" horiz-adv-x="270" 
d="M43 -217q-40 0 -72 13l17 62q24 -8 46 -8q34 0 47 23.5t13 71.5v286h-86v43l86 5v207h82v-207h83v-48h-83v-286q0 -162 -133 -162z" />
    <glyph glyph-name="uni0260" unicode="&#x260;" horiz-adv-x="559" 
d="M259 -216q-95 0 -174 53l30 58q67 -45 144 -45q65 0 98.5 34t35.5 94l1 92q-67 -65 -144 -65q-92 0 -146 65.5t-54 179.5q0 110 62.5 179t148.5 69q67 0 134 -56l-1 41q0 68 33 107t98 39q31 0 56 -10l-16 -63q-13 6 -31 6q-59 0 -59 -92v-494q0 -90 -56.5 -141
t-159.5 -51zM268 73q62 0 125 67v238q-58 51 -119 51q-59 0 -99.5 -50.5t-40.5 -127.5q0 -82 35.5 -130t98.5 -48z" />
    <glyph glyph-name="uni0261" unicode="&#x261;" horiz-adv-x="559" 
d="M259 -216q-95 0 -174 53l30 58q67 -45 144 -45q65 0 98.5 34t35.5 94l1 92q-67 -65 -144 -65q-92 0 -146 65.5t-54 179.5q0 110 62.5 179t148.5 69q73 0 136 -57h2l7 45h69v-510q0 -90 -56.5 -141t-159.5 -51zM268 73q62 0 125 67v238q-58 51 -119 51q-59 0 -99.5 -50.5
t-40.5 -127.5q0 -82 35.5 -130t98.5 -48z" />
    <glyph glyph-name="uni0262" unicode="&#x262;" horiz-adv-x="497" 
d="M280 -12q-102 0 -168 67.5t-66 188.5q0 116 68 185t171 69q89 0 155 -60l-40 -51q-54 46 -111 46q-69 0 -114.5 -51t-45.5 -138q0 -88 43 -139t115 -51q55 0 88 30v119h-108v59h181v-213q-65 -61 -168 -61z" />
    <glyph glyph-name="uni0263" unicode="&#x263;" horiz-adv-x="467" 
d="M236 -224q-52 0 -81.5 31.5t-29.5 84.5q0 32 12.5 64.5t43.5 95.5l-169 434h85l92 -259q8 -24 23.5 -64.5t21.5 -57.5h4q7 21 22 60t22 62l92 259h81l-166 -433q22 -44 31.5 -64.5t17.5 -47.5t8 -49q0 -53 -29 -84.5t-81 -31.5zM236 -167q19 0 29 14.5t10 38.5
q0 52 -38 125h-4q-37 -74 -37 -125q0 -24 10.5 -38.5t29.5 -14.5z" />
    <glyph glyph-name="uni0264" unicode="&#x264;" horiz-adv-x="511" 
d="M256 -12q-84 0 -129 44t-45 123q0 98 117 208q-56 67 -110 67q-28 0 -47 -14l-26 60q31 22 84 22q79 0 156 -87q76 87 155 87q53 0 84 -22l-26 -60q-20 14 -47 14q-54 0 -110 -67q117 -112 117 -208q0 -79 -45 -123t-128 -44zM256 56q45 0 69.5 28.5t24.5 72.5
q0 78 -94 167q-94 -87 -94 -167q0 -44 24 -72.5t70 -28.5z" />
    <glyph glyph-name="uni0265" unicode="&#x265;" horiz-adv-x="547" 
d="M382 -205v174l5 106q-79 -87 -163 -87q-149 0 -149 190v308h83v-297q0 -68 21.5 -99t69.5 -31q37 0 67 19t66 63v345h83v-691h-83z" />
    <glyph glyph-name="uni0266" unicode="&#x266;" horiz-adv-x="544" 
d="M82 0v537q0 86 43 136.5t126 50.5q43 0 82 -16l-19 -63q-27 12 -55 12q-92 0 -95 -121l-3 -126q85 81 162 81q148 0 148 -190v-301h-82v290q0 68 -22 98.5t-70 30.5q-35 0 -64 -17t-69 -57v-345h-82z" />
    <glyph glyph-name="uni0267" unicode="&#x267;" horiz-adv-x="544" 
d="M338 -183q-41 0 -71 13l16 63q27 -9 46 -9q34 0 47 24t13 72v310q0 68 -22 98.5t-70 30.5q-35 0 -64 -17t-69 -57v-345h-82v537q0 86 43 136.5t126 50.5q43 0 82 -16l-19 -63q-27 12 -55 12q-92 0 -95 -121l-3 -126q85 81 162 81q148 0 148 -190v-322q0 -162 -133 -162z
" />
    <glyph glyph-name="uni0268" unicode="&#x268;" horiz-adv-x="270" 
d="M8 231v43l86 5v207h82v-207h83v-48h-83v-231h-82v231h-86zM136 586q-24 0 -40.5 15t-16.5 38q0 24 16.5 38.5t40.5 14.5t40.5 -14.5t16.5 -38.5q0 -23 -16.5 -38t-40.5 -15z" />
    <glyph glyph-name="uni026A" unicode="&#x26a;" horiz-adv-x="341" 
d="M46 0v67h84v352h-84v67h249v-67h-83v-352h83v-67h-249z" />
    <glyph glyph-name="uni026C" unicode="&#x26c;" horiz-adv-x="302" 
d="M121 319q-63 0 -95 24t-32 63q0 34 23.5 56.5t59.5 22.5q32 0 54 -20v247h82v-346h83v-47h-83v-227q0 -36 23 -36q9 0 18 2l11 -62q-18 -8 -47 -8q-87 0 -87 110v221h-10zM111 366h20v6q0 27 -12 47t-38 20q-34 0 -34 -34q0 -17 16.5 -28t47.5 -11z" />
    <glyph glyph-name="uni026D" unicode="&#x26d;" horiz-adv-x="255" 
d="M205 -183q-123 0 -123 155v740h82v-740q0 -88 50 -88q14 0 36 9l17 -63q-26 -13 -62 -13z" />
    <glyph glyph-name="uni026E" unicode="&#x26e;" horiz-adv-x="577" 
d="M352 -217q-115 0 -197 78l41 52q68 -62 149 -62q55 0 92.5 41.5t37.5 107.5q0 62 -35 97t-99 35q-26 0 -63 -16l-33 45l192 258h-273v-419h-82v712h82v-226h373v-44l-188 -253q95 10 152 -43t57 -144q0 -101 -60.5 -160t-145.5 -59z" />
    <glyph glyph-name="uni026F" unicode="&#x26f;" horiz-adv-x="829" 
d="M225 -12q-148 0 -148 190v308h82v-297q0 -68 22 -99t69 -31q55 0 121 75v352h83v-297q0 -68 21.5 -99t68.5 -31q54 0 122 75v352h82v-486h-68l-7 70h-2q-78 -82 -152 -82q-101 0 -134 93q-85 -93 -160 -93z" />
    <glyph glyph-name="uni0270" unicode="&#x270;" horiz-adv-x="829" 
d="M666 -205v173l4 103q-75 -83 -151 -83q-101 0 -134 93q-85 -93 -160 -93q-148 0 -148 190v308h82v-297q0 -68 22 -99t69 -31q55 0 121 75v352h83v-297q0 -68 21.5 -99t68.5 -31q54 0 122 75v352h82v-691h-82z" />
    <glyph glyph-name="uni0271" unicode="&#x271;" horiz-adv-x="829" 
d="M624 -183q-38 0 -68 13l16 63q25 -9 43 -9q33 0 44.5 23.5t11.5 72.5v317q0 68 -22 99t-68 31q-55 0 -122 -75v-352h-82v297q0 68 -22 99t-69 31q-54 0 -122 -75v-352h-82v486h68l7 -70h3q75 82 151 82q102 0 134 -93q86 93 160 93q148 0 148 -190v-329q0 -162 -129 -162
z" />
    <glyph glyph-name="uni0272" unicode="&#x272;" horiz-adv-x="547" 
d="M41 -183q-37 0 -61 13l16 63q23 -9 36 -9q50 0 50 88v514h70l5 -70h3q82 82 163 82q148 0 148 -190v-308h-82v297q0 68 -22 99t-70 31q-35 0 -64 -17.5t-69 -57.5v-380q0 -155 -123 -155z" />
    <glyph glyph-name="uni0273" unicode="&#x273;" horiz-adv-x="547" 
d="M512 -183q-123 0 -123 155v325q0 68 -22 99t-70 31q-35 0 -64 -17.5t-69 -57.5v-352h-82v486h68l7 -70h3q82 82 163 82q148 0 148 -190v-336q0 -88 50 -88q13 0 36 9l16 -63q-24 -13 -61 -13z" />
    <glyph glyph-name="uni0274" unicode="&#x274;" horiz-adv-x="543" 
d="M82 0v486h78l169 -275q9 -15 29 -52t29 -52h4q-8 126 -8 177v202h78v-486h-77l-171 275q-10 17 -30.5 55.5t-26.5 48.5h-4q8 -126 8 -177v-202h-78z" />
    <glyph glyph-name="uni0275" unicode="&#x275;" horiz-adv-x="542" 
d="M271 -12q-96 0 -160.5 67t-64.5 187q0 121 64.5 188.5t160.5 67.5t160.5 -67.5t64.5 -188.5q0 -120 -64.5 -187t-160.5 -67zM271 434q-58 0 -97 -40.5t-48 -111.5h291q-9 72 -48 112t-98 40zM271 53q63 0 103 45t44 125h-293q4 -79 44 -124.5t102 -45.5z" />
    <glyph glyph-name="uni0276" unicode="&#x276;" horiz-adv-x="699" 
d="M287 -12q-104 0 -172.5 67t-68.5 188t68.5 188t172.5 67q54 0 102 -12h280v-63h-229v-141h192v-59h-192v-160h239v-63h-290q-47 -12 -102 -12zM292 55q24 0 66 12v351q-36 12 -66 12q-70 0 -115 -48t-45 -139q0 -92 44.5 -140t115.5 -48z" />
    <glyph glyph-name="uni0278" unicode="&#x278;" horiz-adv-x="680" 
d="M131 244q0 -84 49 -135.5t122 -54.5v378q-73 -3 -122 -53.5t-49 -134.5zM549 244q0 85 -47 135t-124 53v-378q74 3 122.5 54t48.5 136zM302 -205v196q-105 3 -180.5 71t-75.5 182q0 113 75.5 180.5t180.5 70.5v217h76v-217q107 -3 181.5 -70.5t74.5 -180.5
q0 -114 -75.5 -182t-180.5 -71v-196h-76z" />
    <glyph glyph-name="uni0279" unicode="&#x279;" horiz-adv-x="347" 
d="M49 -12q-29 0 -52 10l16 72q27 -8 47 -8q34 0 67 27t56 85v312h82v-486h-68l-7 89h-2q-26 -47 -62 -74t-77 -27z" />
    <glyph glyph-name="uni027A" unicode="&#x27a;" horiz-adv-x="347" 
d="M49 -12q-29 0 -52 10l16 72q27 -8 47 -8q34 0 67 27t56 85v538h82v-712h-68l-7 89h-2q-26 -47 -62 -74t-77 -27z" />
    <glyph glyph-name="uni027B" unicode="&#x27b;" horiz-adv-x="347" 
d="M306 -183q-116 0 -116 145v127h-2q-26 -47 -62 -74t-77 -27q-29 0 -52 10l16 72q27 -8 47 -8q34 0 67 27t56 85v312h82v-514q0 -88 50 -88q13 0 36 9l17 -63q-26 -13 -62 -13z" />
    <glyph glyph-name="uni027D" unicode="&#x27d;" horiz-adv-x="347" 
d="M205 -183q-123 0 -123 155v514h68l7 -88h3q25 47 61 73.5t77 26.5q29 0 52 -10l-16 -72q-26 8 -47 8q-34 0 -67 -27t-56 -85v-340q0 -88 50 -88q14 0 36 9l17 -63q-26 -13 -62 -13z" />
    <glyph glyph-name="uni027E" unicode="&#x27e;" horiz-adv-x="334" 
d="M82 0v314q0 86 45 135t124 49q52 0 85 -14l-15 -69q-27 11 -62 11q-39 0 -67 -34t-28 -95v-297h-82z" />
    <glyph glyph-name="uni0280" unicode="&#x280;" horiz-adv-x="495" 
d="M82 0v486h172q184 0 184 -144q0 -106 -106 -140l131 -202h-91l-117 192h-91v-192h-82zM164 252h76q55 0 85.5 23t30.5 65q0 82 -116 82h-76v-170z" />
    <glyph glyph-name="uni0281" unicode="&#x281;" horiz-adv-x="495" 
d="M241 0q-184 0 -184 145q0 107 106 141l-131 200h92l116 -189h91v189h82v-486h-172zM255 64h76v173h-76q-54 0 -84.5 -23.5t-30.5 -66.5q0 -83 115 -83z" />
    <glyph glyph-name="uni0282" unicode="&#x282;" horiz-adv-x="419" 
d="M209 -12q-56 0 -107 20v-28q0 -49 13 -73t48 -24q20 0 46 8l16 -61q-32 -13 -71 -13q-126 0 -126 162v69l41 54q68 -50 143 -50q46 0 71 21.5t25 54.5q0 18 -9 32t-28 25.5t-33 18t-41 16.5q-32 11 -53 21t-44.5 27t-35.5 40t-12 52q0 60 45 99t122 39q83 0 151 -55
l-39 -52q-57 43 -111 43q-43 0 -66 -20t-23 -50q0 -20 16.5 -36.5t31 -23.5t50.5 -20q7 -3 10 -4q28 -11 43 -17t38.5 -19.5t35.5 -27t21.5 -35t9.5 -48.5q0 -62 -47.5 -103.5t-130.5 -41.5z" />
    <glyph glyph-name="uni0283" unicode="&#x283;" horiz-adv-x="247" 
d="M32 -217q-40 0 -72 13l17 62q24 -8 46 -8q34 0 47 23.5t13 71.5v619q0 162 143 162q33 0 61 -13l-16 -63q-23 9 -36 9q-40 0 -55 -24t-15 -72v-618q0 -162 -133 -162z" />
    <glyph glyph-name="uni0284" unicode="&#x284;" horiz-adv-x="270" 
d="M43 -217q-40 0 -72 13l17 62q24 -8 46 -8q34 0 47 23.5t13 71.5v286h-86v43l86 5v285q0 162 143 162q33 0 61 -13l-16 -63q-23 9 -36 9q-40 0 -55 -24t-15 -72v-284h83v-48h-83v-286q0 -162 -133 -162z" />
    <glyph glyph-name="uni0288" unicode="&#x288;" horiz-adv-x="338" 
d="M235 -184q-139 0 -139 162v441h-72v62l76 5l10 136h69v-136h131v-67h-131v-442q0 -47 17 -70.5t58 -23.5q25 0 55 13l16 -62q-54 -18 -90 -18z" />
    <glyph glyph-name="uni0289" unicode="&#x289;" horiz-adv-x="575" 
d="M8 262v43l86 5v176h83v-176h222v176h82v-176h82v-48h-82v-262h-68l-7 76h-3q-75 -88 -160 -88q-149 0 -149 190v84h-86zM268 59q37 0 66 19t65 63v121h-222v-73q0 -68 21.5 -99t69.5 -31z" />
    <glyph glyph-name="uni028A" unicode="&#x28a;" horiz-adv-x="541" 
d="M271 -12q-102 0 -162 65.5t-60 155.5q0 126 86 208v2h-98v67h186v-53q-91 -76 -91 -206q0 -73 36.5 -122t102.5 -49q65 0 101.5 49t36.5 122q0 130 -90 206v53h185v-67h-98v-2q87 -83 87 -208q0 -90 -60.5 -155.5t-161.5 -65.5z" />
    <glyph glyph-name="uni028B" unicode="&#x28b;" horiz-adv-x="530" 
d="M262 -12q-85 0 -136 53.5t-51 160.5v284h83v-277q0 -78 29.5 -115.5t77.5 -37.5q61 0 95.5 61t34.5 157q0 158 -79 158q-13 0 -28 -6l-13 64q23 8 58 8q70 0 108.5 -53t38.5 -159q0 -133 -57 -215.5t-161 -82.5z" />
    <glyph glyph-name="uni028C" unicode="&#x28c;" horiz-adv-x="467" 
d="M12 0l172 486h96l175 -486h-85l-92 276q-10 35 -45 144h-4l-45 -144l-91 -276h-81z" />
    <glyph glyph-name="uni028D" unicode="&#x28d;" horiz-adv-x="718" 
d="M24 0l130 486h101l70 -261q4 -17 15 -64.5t18 -75.5h4q18 87 33 141l68 260h96l135 -486h-84l-72 281q-4 18 -13.5 64t-15.5 71h-4q-15 -68 -33 -135l-75 -281h-80l-76 281q-5 21 -16.5 66t-17.5 69h-4q-3 -15 -9 -42.5t-11 -50t-10 -42.5l-71 -281h-78z" />
    <glyph glyph-name="uni028E" unicode="&#x28e;" horiz-adv-x="467" 
d="M12 0l194 555q28 80 70.5 124.5t111.5 44.5q30 0 57 -10l-16 -65q-23 7 -37 7q-75 0 -110 -104l-22 -65l195 -487h-84l-100 269q-8 21 -23.5 68t-23.5 69h-4q-8 -26 -23 -76t-18 -61l-86 -269h-81z" />
    <glyph glyph-name="uni028F" unicode="&#x28f;" horiz-adv-x="415" 
d="M167 0v164l-168 322h88l66 -138q6 -14 54 -112h4q5 11 23.5 50.5t28.5 61.5l66 138h87l-167 -322v-164h-82z" />
    <glyph glyph-name="uni0290" unicode="&#x290;" horiz-adv-x="425" 
d="M431 -183q-124 0 -124 147v36h-276v44l256 375h-228v67h332v-44l-256 -375h254v-95q0 -88 51 -88q14 0 36 9l16 -63q-26 -13 -61 -13z" />
    <glyph glyph-name="uni0291" unicode="&#x291;" horiz-adv-x="449" 
d="M238 -81l-48 10q8 39 18 71h-177v44l256 375h-228v67h327v-44l-255 -375q17 -1 49.5 -2t48.5 -1q58 148 143 148q43 0 67 -24t24 -68q0 -53 -39.5 -86.5t-115.5 -33.5h-51q-9 -31 -19 -81zM329 63q38 0 60 17.5t22 41.5q0 40 -41 40q-50 0 -91 -99h50z" />
    <glyph glyph-name="uni0292" unicode="&#x292;" horiz-adv-x="425" 
d="M200 -217q-115 0 -197 78l41 52q68 -62 149 -62q55 0 92.5 41.5t37.5 107.5q0 62 -35 97t-99 35q-26 0 -63 -16l-33 45l192 258h-241v67h341v-44l-188 -253q95 10 152 -43t57 -144q0 -101 -60.5 -160t-145.5 -59z" />
    <glyph glyph-name="uni0294" unicode="&#x294;" horiz-adv-x="417" 
d="M146 0v324q90 52 129 98.5t39 107.5q0 58 -33.5 92t-92.5 34q-83 0 -146 -73l-44 54q81 87 196 87q89 0 146 -50t57 -142q0 -79 -42.5 -133.5t-126.5 -111.5v-287h-82z" />
    <glyph glyph-name="uni0295" unicode="&#x295;" horiz-adv-x="443" 
d="M200 0v287q-84 57 -126.5 111.5t-42.5 133.5q0 92 60 142t153 50q109 0 186 -87l-44 -54q-60 73 -136 73q-64 0 -100 -34t-36 -92q0 -61 39 -107.5t129 -98.5v-324h-82z" />
    <glyph glyph-name="uni0298" unicode="&#x298;" horiz-adv-x="525" 
d="M263 -12q-97 0 -150.5 92t-53.5 279q0 176 54.5 270.5t149.5 94.5t149 -94.5t54 -270.5q0 -187 -53.5 -279t-149.5 -92zM263 56q57 0 91 72.5t34 230.5q0 146 -34.5 221.5t-90.5 75.5t-91 -75t-35 -222q0 -158 34 -230.5t92 -72.5zM263 312q-20 0 -34 14t-14 33
q0 21 14 34t34 13q19 0 33 -13.5t14 -33.5q0 -19 -14 -33t-33 -14z" />
    <glyph glyph-name="uni0299" unicode="&#x299;" horiz-adv-x="508" 
d="M82 0v486h187q179 0 179 -123q0 -80 -81 -104v-3q102 -24 102 -117q0 -69 -52 -104t-140 -35h-195zM163 282h92q113 0 113 73q0 72 -107 72h-98v-145zM163 59h105q119 0 119 85q0 37 -31.5 58t-92.5 21h-100v-164z" />
    <glyph glyph-name="uni029C" unicode="&#x29c;" horiz-adv-x="562" 
d="M83 0v486h82v-197h234v197h82v-486h-82v216h-234v-216h-82z" />
    <glyph glyph-name="uni029D" unicode="&#x29d;" horiz-adv-x="284" 
d="M242 -274q-38 71 -75 119q-43 -62 -127 -62q-56 0 -90 32t-34 79q0 45 32 72.5t89 27.5q40 0 83 -23v515h82v-509q0 -34 -6 -64q58 -58 110 -157zM39 -152q54 0 73 55q-40 32 -76 32q-25 0 -39 -11t-14 -29q0 -20 16 -33.5t40 -13.5zM161 586q-24 0 -40.5 15t-16.5 38
q0 24 16.5 38.5t40.5 14.5t40.5 -14.5t16.5 -38.5q0 -23 -16.5 -38t-40.5 -15z" />
    <glyph glyph-name="uni029F" unicode="&#x29f;" horiz-adv-x="411" 
d="M82 0v486h82v-419h221v-67h-303z" />
    <glyph glyph-name="uni02A1" unicode="&#x2a1;" horiz-adv-x="441" 
d="M158 0v257h-151v62l76 5h89q156 98 156 206q0 58 -33 92t-92 34q-83 0 -146 -73l-44 54q81 87 196 87q89 0 146 -50t57 -142q0 -111 -134 -208h144v-67h-182v-257h-82z" />
    <glyph glyph-name="uni02A2" unicode="&#x2a2;" horiz-adv-x="441" 
d="M200 0v257h-181v67h144q-134 97 -134 208q0 92 60 142t153 50q107 0 186 -87l-44 -54q-60 73 -136 73q-64 0 -100 -34t-36 -92q0 -108 157 -206h89l76 -5v-62h-152v-257h-82z" />
    <glyph glyph-name="h.sups" unicode="&#x2b0;" horiz-adv-x="366" 
d="M52 395v468h62v-125l-3 -67q51 53 108 53q102 0 102 -126v-203h-62v194q0 42 -13 62t-48 20q-37 0 -84 -47v-229h-62z" />
    <glyph glyph-name="j.sups" unicode="&#x2b2;" horiz-adv-x="169" 
d="M23 250q-25 0 -49 8l13 49q12 -6 28 -6q22 0 30.5 14.5t8.5 45.5v355h62v-351q0 -115 -93 -115zM86 778q-18 0 -30 11t-12 28t12 28.5t30 11.5t30 -11.5t12 -28.5t-12 -28t-30 -11z" />
    <glyph glyph-name="r.sups" unicode="&#x2b3;" horiz-adv-x="240" 
d="M52 395v321h50l7 -56h3q38 64 91 64q26 0 38 -6l-12 -56q-20 5 -32 5q-52 0 -82 -69v-203h-63z" />
    <glyph glyph-name="w.sups" unicode="&#x2b7;" horiz-adv-x="487" 
d="M105 395l-89 321h64l44 -179l19 -91h4l22 91l47 179h56l50 -179l22 -91h4l21 91l43 179h59l-87 -321h-75l-43 163l-21 92h-2l-21 -92l-43 -163h-74z" />
    <glyph glyph-name="y.sups" unicode="&#x2b8;" horiz-adv-x="319" 
d="M65 261q-23 0 -41 6l13 50q14 -6 24 -6q50 0 71 65l7 21l-131 319h63l63 -169q23 -67 31 -93h4q7 24 29 93l52 169h61l-119 -340q-41 -115 -127 -115z" />
    <glyph glyph-name="uni02B9" unicode="&#x2b9;" horiz-adv-x="249" 
d="M82 450l22 240l81 -1l-15 -91l-34 -149z" />
    <glyph glyph-name="uni02BB" unicode="&#x2bb;" horiz-adv-x="249" 
d="M120 428q-30 0 -46.5 23.5t-16.5 66.5q0 117 106 178l24 -39q-76 -49 -76 -124q3 1 9 1q22 0 37.5 -13.5t15.5 -37.5q0 -25 -14.5 -40t-38.5 -15z" />
    <glyph glyph-name="uni02BC" unicode="&#x2bc;" horiz-adv-x="249" 
d="M86 431l-23 38q75 49 75 125q-3 -1 -8 -1q-22 0 -37.5 13.5t-15.5 36.5q0 26 14.5 41t38.5 15q29 0 46 -24t17 -67q0 -115 -107 -177z" />
    <glyph glyph-name="uni02BE" unicode="&#x2be;" horiz-adv-x="166" 
d="M30 549v35q73 0 73 62t-73 62v35q58 2 89.5 -24t31.5 -73t-31.5 -73t-89.5 -24z" />
    <glyph glyph-name="uni02BF" unicode="&#x2bf;" horiz-adv-x="166" 
d="M136 549q-58 -2 -89.5 24t-31.5 73t31.5 73t89.5 24v-35q-73 0 -73 -62t73 -62v-35z" />
    <glyph glyph-name="uni02C1" unicode="&#x2c1;" horiz-adv-x="302" 
d="M134 395v187q-56 38 -84 73.5t-28 87.5q0 61 40.5 95t103.5 34q74 0 126 -58l-32 -40q-38 47 -89 47q-41 0 -64 -21.5t-23 -57.5q0 -40 25.5 -69.5t85.5 -64.5v-213h-61z" />
    <glyph glyph-name="circumflex" unicode="&#x2c6;" horiz-adv-x="542" 
d="M116 600l114 140h82l114 -140l-35 -32l-118 113h-4l-118 -113z" />
    <glyph glyph-name="caron" unicode="&#x2c7;" horiz-adv-x="542" 
d="M230 574l-114 140l35 32l118 -113h4l118 113l35 -32l-114 -140h-82z" />
    <glyph glyph-name="uni02C8" unicode="&#x2c8;" horiz-adv-x="114" 
d="M28 533l-6 196h70l-6 -196h-58z" />
    <glyph glyph-name="uni02C9" unicode="&#x2c9;" horiz-adv-x="277" 
d="M6 601v57h266v-57h-266z" />
    <glyph glyph-name="uni02CA" unicode="&#x2ca;" horiz-adv-x="225" 
d="M97 573l-42 41l141 167l58 -55z" />
    <glyph glyph-name="uni02CB" unicode="&#x2cb;" horiz-adv-x="225" 
d="M125 573l-157 153l58 55l141 -167z" />
    <glyph glyph-name="uni02CC" unicode="&#x2cc;" horiz-adv-x="114" 
d="M22 -266l6 195h58l6 -195h-70z" />
    <glyph glyph-name="uni02D0" unicode="&#x2d0;" horiz-adv-x="249" 
d="M50 0l69 138h11l69 -138h-149zM119 327l-69 136h149l-69 -136h-11z" />
    <glyph glyph-name="uni02D1" unicode="&#x2d1;" horiz-adv-x="249" 
d="M119 269l-69 136h149l-69 -136h-11z" />
    <glyph glyph-name="breve" unicode="&#x2d8;" horiz-adv-x="542" 
d="M271 571q-74 0 -113 44t-43 107l51 8q7 -43 33.5 -73.5t71.5 -30.5t71.5 30.5t33.5 73.5l51 -8q-4 -63 -43 -107t-113 -44z" />
    <glyph glyph-name="dotaccent" unicode="&#x2d9;" horiz-adv-x="542" 
d="M271 586q-23 0 -38.5 15t-15.5 39q0 23 15.5 38.5t38.5 15.5t38.5 -15.5t15.5 -38.5q0 -24 -15.5 -39t-38.5 -15z" />
    <glyph glyph-name="ring" unicode="&#x2da;" horiz-adv-x="542" 
d="M271 554q-50 0 -80 28t-30 71t30 70.5t80 27.5t80 -27.5t30 -70.5t-30 -71t-80 -28zM271 591q25 0 41 17t16 45q0 27 -16.5 44t-40.5 17t-40.5 -17t-16.5 -44q0 -28 16 -45t41 -17z" />
    <glyph glyph-name="ogonek" unicode="&#x2db;" horiz-adv-x="542" 
d="M295 -206q-39 0 -64.5 22.5t-25.5 62.5q0 70 71 124h58q-68 -51 -68 -108q0 -22 13.5 -34t32.5 -12q22 0 40 13l22 -41q-34 -27 -79 -27z" />
    <glyph glyph-name="tilde" unicode="&#x2dc;" horiz-adv-x="542" 
d="M343 577q-30 0 -56 21t-47.5 42t-39.5 21q-42 0 -47 -79l-55 3q2 62 27 99t74 37q30 0 56 -21t47.5 -42t40.5 -21q41 0 46 79l55 -4q-2 -62 -27 -98.5t-74 -36.5z" />
    <glyph glyph-name="hungarumlaut" unicode="&#x2dd;" horiz-adv-x="542" 
d="M220 568l-45 21l86 172l59 -28zM371 568l-46 21l87 172l58 -28z" />
    <glyph glyph-name="uni02DE" unicode="&#x2de;" horiz-adv-x="151" 
d="M104 230q-71 0 -95 96l-106 -43v63l146 60q10 -72 24.5 -98t36.5 -26q20 0 39 15l22 -43q-32 -24 -67 -24z" />
    <glyph glyph-name="uni02E0" unicode="&#x2e0;" horiz-adv-x="318" 
d="M160 248q-36 0 -57 21.5t-21 57.5q0 15 6 33.5t10.5 28.5t21.5 44l-112 283h63l59 -166q5 -15 15 -40.5t14 -40.5h3q5 16 15.5 42.5t14.5 38.5l58 166h60l-110 -284q39 -75 39 -105q0 -36 -21 -57.5t-58 -21.5zM160 289q27 0 27 34q0 32 -25 80h-3q-24 -50 -24 -80
q0 -34 25 -34z" />
    <glyph glyph-name="l.sups" unicode="&#x2e1;" horiz-adv-x="174" 
d="M117 387q-65 0 -65 81v395h62v-400q0 -25 16 -25q8 0 14 2l9 -47q-13 -6 -36 -6z" />
    <glyph glyph-name="s.sups" unicode="&#x2e2;" horiz-adv-x="283" 
d="M144 387q-69 0 -125 44l30 41q49 -37 96 -37q27 0 42.5 13t15.5 32q0 14 -12 25.5t-24 16.5t-37 15q-21 8 -34.5 15t-29 18t-23.5 26.5t-8 35.5q0 39 30 65.5t81 26.5q56 0 107 -36l-31 -40q-37 28 -74 28q-26 0 -40 -12t-14 -28q0 -6 2 -10.5t4 -8.5t7 -8t8.5 -6
t11.5 -6t12 -5.5t13.5 -5t13.5 -5.5q23 -9 35.5 -14.5t29.5 -16.5t24.5 -27t7.5 -37q0 -44 -32.5 -71.5t-86.5 -27.5z" />
    <glyph glyph-name="x.sups" unicode="&#x2e3;" horiz-adv-x="307" 
d="M8 395l108 168l-99 153h68l41 -66l31 -51h4l27 51l37 66h66l-98 -160l105 -161h-68l-43 69l-35 55h-4l-33 -55l-41 -69h-66z" />
    <glyph glyph-name="uni0300" unicode="&#x300;" 
d="M14 573l-157 153l58 55l141 -167z" />
    <glyph glyph-name="uni0301" unicode="&#x301;" 
d="M-14 573l-42 41l141 167l58 -55z" />
    <glyph glyph-name="uni0302" unicode="&#x302;" 
d="M-155 600l114 140h82l114 -140l-35 -32l-118 113h-4l-118 -113z" />
    <glyph glyph-name="uni0303" unicode="&#x303;" 
d="M72 577q-30 0 -56 21t-47.5 42t-39.5 21q-42 0 -47 -79l-55 3q2 62 27 99t74 37q30 0 56 -21t47.5 -42t40.5 -21q41 0 46 79l55 -4q-2 -62 -27 -98.5t-74 -36.5z" />
    <glyph glyph-name="uni0304" unicode="&#x304;" 
d="M-133 601v57h266v-57h-266z" />
    <glyph glyph-name="uni0305" unicode="&#x305;" 
d="M-133 601v57h266v-57h-266z" />
    <glyph glyph-name="uni0306" unicode="&#x306;" 
d="M0 571q-74 0 -113 44t-43 107l51 8q7 -43 33.5 -73.5t71.5 -30.5t71.5 30.5t33.5 73.5l51 -8q-4 -63 -43 -107t-113 -44z" />
    <glyph glyph-name="uni0307" unicode="&#x307;" 
d="M0 586q-23 0 -38.5 15t-15.5 39q0 23 15.5 38.5t38.5 15.5t38.5 -15.5t15.5 -38.5q0 -24 -15.5 -39t-38.5 -15z" />
    <glyph glyph-name="uni0308" unicode="&#x308;" 
d="M-96 587q-22 0 -36 14.5t-14 35.5t14 35.5t36 14.5q21 0 35 -14.5t14 -35.5t-14 -35.5t-35 -14.5zM96 587q-21 0 -35 14.5t-14 35.5t14 35.5t35 14.5q22 0 36 -14.5t14 -35.5t-14 -35.5t-36 -14.5z" />
    <glyph glyph-name="uni0309" unicode="&#x309;" 
d="M-32 572l-9 40q56 14 56 47q0 43 -83 47l5 54q69 -2 106 -26t37 -68q0 -73 -112 -94z" />
    <glyph glyph-name="uni030A" unicode="&#x30a;" 
d="M0 554q-50 0 -80 28t-30 71t30 70.5t80 27.5t80 -27.5t30 -70.5t-30 -71t-80 -28zM0 591q25 0 41 17t16 45q0 27 -16.5 44t-40.5 17t-40.5 -17t-16.5 -44q0 -28 16 -45t41 -17z" />
    <glyph glyph-name="uni030B" unicode="&#x30b;" 
d="M-51 568l-45 21l86 172l59 -28zM100 568l-46 21l87 172l58 -28z" />
    <glyph glyph-name="uni030C" unicode="&#x30c;" 
d="M-41 574l-114 140l35 32l118 -113h4l118 113l35 -32l-114 -140h-82z" />
    <glyph glyph-name="uni030F" unicode="&#x30f;" 
d="M-100 568l-99 165l58 28l87 -172zM51 568l-100 165l59 28l86 -172z" />
    <glyph glyph-name="uni0311" unicode="&#x311;" 
d="M-105 568l-51 8q4 63 43 107t113 44t113 -44t43 -107l-51 -8q-7 43 -33.5 73.5t-71.5 30.5t-71.5 -30.5t-33.5 -73.5z" />
    <glyph glyph-name="uni0312" unicode="&#x312;" 
d="M-2 564q-51 0 -51 69q0 80 81 117l18 -32q-54 -26 -57 -71q3 1 8 1q16 0 28.5 -11t12.5 -29q0 -21 -11.5 -32.5t-28.5 -11.5z" />
    <glyph glyph-name="uni0313" unicode="&#x313;" 
d="M-30 562l-17 32q54 28 57 72q-3 -1 -9 -1q-16 0 -28.5 10.5t-12.5 28.5q0 22 12 33.5t29 11.5q50 0 50 -69q0 -81 -81 -118z" />
    <glyph glyph-name="uni0318" unicode="&#x318;" 
d="M85 -249h-50v72h-111v47h111v72h50v-191z" />
    <glyph glyph-name="uni0319" unicode="&#x319;" 
d="M76 -177h-111v-72h-50v191h50v-72h111v-47z" />
    <glyph glyph-name="uni031A" unicode="&#x31a;" 
d="M85 573h-50v94h-111v47h161v-141z" />
    <glyph glyph-name="uni031B" unicode="&#x31b;" 
d="M-1 434l-8 41q84 13 84 82q0 23 -14 56l64 30q23 -42 23 -80q0 -56 -41 -88.5t-108 -40.5z" />
    <glyph glyph-name="uni031C" unicode="&#x31c;" 
d="M55 -258q-58 -2 -89.5 24t-31.5 73t31.5 73t89.5 24v-35q-73 0 -73 -62t73 -62v-35z" />
    <glyph glyph-name="uni031D" unicode="&#x31d;" 
d="M96 -211h-192v47h71v106h50v-106h71v-47z" />
    <glyph glyph-name="uni031E" unicode="&#x31e;" 
d="M96 -143h-71v-106h-50v106h-71v47h192v-47z" />
    <glyph glyph-name="uni031F" unicode="&#x31f;" 
d="M96 -177h-71v-72h-50v72h-71v47h71v72h50v-72h71v-47z" />
    <glyph glyph-name="uni0320" unicode="&#x320;" 
d="M-96 -177v47h192v-47h-192z" />
    <glyph glyph-name="uni0323" unicode="&#x323;" 
d="M0 -206q-23 0 -38.5 15t-15.5 39q0 23 15.5 38.5t38.5 15.5t38.5 -15.5t15.5 -38.5q0 -24 -15.5 -39t-38.5 -15z" />
    <glyph glyph-name="uni0324" unicode="&#x324;" 
d="M-96 -202q-22 0 -36 14.5t-14 35.5t14 35.5t36 14.5q21 0 35 -14.5t14 -35.5t-14 -35.5t-35 -14.5zM96 -202q-21 0 -35 14.5t-14 35.5t14 35.5t35 14.5q22 0 36 -14.5t14 -35.5t-14 -35.5t-36 -14.5z" />
    <glyph glyph-name="uni0325" unicode="&#x325;" 
d="M0 -253q-50 0 -80 28t-30 71t30 70.5t80 27.5t80 -27.5t30 -70.5t-30 -71t-80 -28zM0 -216q25 0 41 17t16 45q0 27 -16.5 44t-40.5 17t-40.5 -17t-16.5 -44q0 -28 16 -45t41 -17z" />
    <glyph glyph-name="uni0326" unicode="&#x326;" 
d="M-87 -226l-8 40q61 4 85 15.5t24 32.5q0 36 -71 42l18 38q64 -7 90.5 -25t26.5 -52q0 -83 -165 -91z" />
    <glyph glyph-name="uni0327" unicode="&#x327;" 
d="M-87 -226l-8 40q61 4 85 16t24 34q0 20 -17.5 31t-59.5 17l44 91h53l-29 -67q73 -17 73 -71q0 -83 -165 -91z" />
    <glyph glyph-name="uni0328" unicode="&#x328;" 
d="M24 -206q-39 0 -64.5 22.5t-25.5 62.5q0 70 71 124h58q-68 -51 -68 -108q0 -22 13.5 -34t32.5 -12q22 0 40 13l22 -41q-34 -27 -79 -27z" />
    <glyph glyph-name="uni0329" unicode="&#x329;" 
d="M-35 -266l6 195h58l6 -195h-70z" />
    <glyph glyph-name="uni032A" unicode="&#x32a;" 
d="M75 -226v97h-150v-97h-46v144h242v-144h-46z" />
    <glyph glyph-name="uni032C" unicode="&#x32c;" 
d="M-41 -224l-114 140l35 32l118 -113h4l118 113l35 -32l-114 -140h-82z" />
    <glyph glyph-name="uni032E" unicode="&#x32e;" 
d="M0 -231q-74 0 -113 44t-43 107l51 8q7 -43 33.5 -73.5t71.5 -30.5t71.5 30.5t33.5 73.5l51 -8q-4 -63 -43 -107t-113 -44z" />
    <glyph glyph-name="uni032F" unicode="&#x32f;" 
d="M-105 -237l-51 8q4 63 43 107t113 44t113 -44t43 -107l-51 -8q-7 43 -33.5 73.5t-71.5 30.5t-71.5 -30.5t-33.5 -73.5z" />
    <glyph glyph-name="uni0330" unicode="&#x330;" 
d="M72 -223q-30 0 -56 21t-47.5 42t-39.5 21q-42 0 -47 -79l-55 3q2 62 27 99t74 37q30 0 56 -21t47.5 -42t40.5 -21q41 0 46 79l55 -4q-2 -62 -27 -98.5t-74 -36.5z" />
    <glyph glyph-name="uni0331" unicode="&#x331;" 
d="M-133 -170v57h266v-57h-266z" />
    <glyph glyph-name="uni0334" unicode="&#x334;" 
d="M72 188q-30 0 -56 21t-47.5 42t-39.5 21q-42 0 -47 -79l-55 3q2 62 27 99t74 37q30 0 56 -21t47.5 -42t40.5 -21q41 0 46 79l55 -4q-2 -62 -27 -98.5t-74 -36.5z" />
    <glyph glyph-name="uni0339" unicode="&#x339;" 
d="M-55 -258v35q73 0 73 62t-73 62v35q58 2 89.5 -24t31.5 -73t-31.5 -73t-89.5 -24z" />
    <glyph glyph-name="uni033A" unicode="&#x33a;" 
d="M-121 -225v143h46v-96h150v96h46v-143h-242z" />
    <glyph glyph-name="uni033B" unicode="&#x33b;" 
d="M-121 -240v163h242v-163h-242zM-75 -200h150v84h-150v-84z" />
    <glyph glyph-name="uni033C" unicode="&#x33c;" 
d="M-168 -228q0 148 94 148q59 0 73 -58h2q14 58 73 58q94 0 94 -148l-48 -6q0 57 -12.5 78.5t-37.5 21.5q-46 0 -46 -80v-19h-48v19q0 80 -47 80q-24 0 -36.5 -21.5t-12.5 -78.5z" />
    <glyph glyph-name="uni033D" unicode="&#x33d;" 
d="M-51 555l-33 33l51 51l-51 51l33 34l51 -51l51 51l33 -34l-51 -51l51 -51l-33 -33l-51 51z" />
    <glyph glyph-name="uni0342" unicode="&#x342;" 
d="M72 577q-30 0 -56 21t-47.5 42t-39.5 21q-42 0 -47 -79l-55 3q2 62 27 99t74 37q30 0 56 -21t47.5 -42t40.5 -21q41 0 46 79l55 -4q-2 -62 -27 -98.5t-74 -36.5z" />
    <glyph glyph-name="uni0345" unicode="&#x345;" 
d="M44 -201q-77 0 -77 93v46h64q-2 -17 -2 -53q0 -31 30 -31q9 0 22 3l9 -49q-23 -9 -46 -9z" />
    <glyph glyph-name="uni0361" unicode="&#x361;" 
d="M-430 550l-24 42q208 127 454 127t454 -127l-24 -42q-183 111 -430 111t-430 -111z" />
    <glyph glyph-name="uni0374" unicode="&#x374;" horiz-adv-x="249" 
d="M82 449l22 241h81l-15 -92l-34 -149h-54z" />
    <glyph glyph-name="uni0375" unicode="&#x375;" horiz-adv-x="249" 
d="M64 0l15 92l34 150h54l-22 -242h-81z" />
    <glyph glyph-name="uni037A" unicode="&#x37a;" horiz-adv-x="542" 
d="M321 -201q-77 0 -77 93v46h64q-2 -17 -2 -53q0 -31 30 -31q9 0 22 3l9 -49q-23 -9 -46 -9z" />
    <glyph glyph-name="uni037E" unicode="&#x37e;" horiz-adv-x="249" 
d="M125 349q-25 0 -42.5 17.5t-17.5 44.5q0 28 17.5 46t42.5 18t42 -18t17 -46q0 -27 -17.5 -44.5t-41.5 -17.5zM67 -170l-20 48q43 19 67 51t23 71q-3 -1 -10 -1q-25 0 -42 15t-17 42q0 26 17.5 42t43.5 16q32 0 50.5 -26t18.5 -71q0 -64 -34.5 -112.5t-96.5 -74.5z" />
    <glyph glyph-name="tonos" unicode="&#x384;" horiz-adv-x="542" 
d="M238 569l43 201l85 -15l-71 -197z" />
    <glyph glyph-name="dieresistonos" unicode="&#x385;" horiz-adv-x="542" 
d="M237 573l45 201l66 -14l-68 -197zM164 595q-18 0 -30 11.5t-12 30.5t12 30.5t30 11.5t29.5 -11.5t11.5 -30.5t-11.5 -30.5t-29.5 -11.5zM390 595q-18 0 -29.5 11.5t-11.5 30.5t11.5 30.5t29.5 11.5t30 -11.5t12 -30.5t-12 -30.5t-30 -11.5z" />
    <glyph glyph-name="Alphatonos" unicode="&#x386;" horiz-adv-x="566" 
d="M225 367l-31 -100h197l-31 100q-31 94 -66 221h-4q-31 -117 -65 -221zM25 0l222 656h94l222 -656h-89l-62 200h-239l-63 -200h-85zM6 475l29 195l76 -11l-50 -195z" />
    <glyph glyph-name="anoteleia" unicode="&#x387;" horiz-adv-x="249" 
d="M125 349q-25 0 -42.5 17.5t-17.5 44.5q0 28 17.5 46t42.5 18t42 -18t17 -46q0 -27 -17.5 -44.5t-41.5 -17.5z" />
    <glyph glyph-name="Epsilontonos" unicode="&#x388;" horiz-adv-x="591" 
d="M154 0v656h378v-70h-295v-206h249v-71h-249v-238h305v-71h-388zM-19 475l29 195l76 -11l-50 -195z" />
    <glyph glyph-name="Etatonos" unicode="&#x389;" horiz-adv-x="716" 
d="M154 0v656h83v-275h305v275h84v-656h-84v309h-305v-309h-83zM-19 475l29 195l76 -11l-50 -195z" />
    <glyph glyph-name="Iotatonos" unicode="&#x38a;" horiz-adv-x="327" 
d="M154 0v656h83v-656h-83zM-19 475l29 195l76 -11l-50 -195z" />
    <glyph glyph-name="Omicrontonos" unicode="&#x38c;" horiz-adv-x="711" 
d="M379 -12q-125 0 -202.5 93t-77.5 250q0 155 77.5 246t202.5 91t203 -91t78 -246q0 -157 -78 -250t-203 -93zM379 61q88 0 141 73.5t53 196.5q0 122 -53 193t-141 71t-141 -71t-53 -193q0 -123 53 -196.5t141 -73.5zM-19 475l29 195l76 -11l-50 -195z" />
    <glyph glyph-name="Upsilontonos" unicode="&#x38e;" horiz-adv-x="600" 
d="M320 0v254l-197 402h89l85 -185q46 -105 63 -143h4q57 122 66 143l84 185h87l-197 -402v-254h-84zM-19 475l29 195l76 -11l-50 -195z" />
    <glyph glyph-name="Omegatonos" unicode="&#x38f;" horiz-adv-x="723" 
d="M92 0v68h131v4q-117 115 -117 279q0 140 77 228.5t203 88.5t203.5 -89t77.5 -228q0 -163 -118 -279v-4h131v-68h-233v61q134 105 134 285q0 109 -52.5 179t-142.5 70t-142 -70t-52 -179q0 -180 133 -285v-61h-233zM-23 475l29 195l76 -11l-50 -195z" />
    <glyph glyph-name="iotadieresistonos" unicode="&#x390;" horiz-adv-x="262" 
d="M175 -12q-93 0 -93 113v385h83q-1 -44 -2.5 -126.5t-2.5 -147.5t-1 -117q0 -39 34 -39q12 0 30 6l11 -62q-26 -12 -59 -12zM84 573l45 201l66 -14l-68 -197zM11 595q-18 0 -30 11.5t-12 30.5t12 30.5t30 11.5q17 0 29 -11.5t12 -30.5t-12 -30.5t-29 -11.5zM237 595
q-17 0 -29 11.5t-12 30.5t12 30.5t29 11.5q18 0 30 -11.5t12 -30.5t-12 -30.5t-30 -11.5z" />
    <glyph glyph-name="Alpha" unicode="&#x391;" horiz-adv-x="544" 
d="M203 367l-31 -100h197l-31 100q-31 94 -66 221h-4q-31 -117 -65 -221zM3 0l222 656h94l222 -656h-89l-62 200h-239l-63 -200h-85z" />
    <glyph glyph-name="Beta" unicode="&#x392;" horiz-adv-x="588" 
d="M90 0v656h195q225 0 225 -160q0 -50 -25.5 -89t-70.5 -54v-4q62 -12 98 -52t36 -105q0 -94 -67.5 -143t-181.5 -49h-209zM173 377h97q158 0 158 108q0 56 -38 80.5t-116 24.5h-101v-213zM173 66h114q179 0 179 129q0 118 -179 118h-114v-247z" />
    <glyph glyph-name="Gamma" unicode="&#x393;" horiz-adv-x="498" 
d="M90 0v656h378v-70h-295v-586h-83z" />
    <glyph glyph-name="uni0394" unicode="&#x394;" horiz-adv-x="588" 
d="M30 0v50l216 606h96l216 -606v-50h-528zM120 71h346l-102 300l-69 210h-4l-69 -210z" />
    <glyph glyph-name="Epsilon" unicode="&#x395;" horiz-adv-x="527" 
d="M90 0v656h378v-70h-295v-206h249v-71h-249v-238h305v-71h-388z" />
    <glyph glyph-name="Zeta" unicode="&#x396;" horiz-adv-x="539" 
d="M45 0v50l345 536h-314v70h418v-49l-346 -536h349v-71h-452z" />
    <glyph glyph-name="Eta" unicode="&#x397;" horiz-adv-x="652" 
d="M90 0v656h83v-275h305v275h84v-656h-84v309h-305v-309h-83z" />
    <glyph glyph-name="Theta" unicode="&#x398;" horiz-adv-x="664" 
d="M220 309v72h224v-72h-224zM332 -12q-125 0 -202.5 93t-77.5 250q0 155 77.5 246t202.5 91t203 -91t78 -246q0 -157 -78 -250t-203 -93zM332 61q88 0 141 73.5t53 196.5q0 122 -53 193t-141 71t-141 -71t-53 -193q0 -123 53 -196.5t141 -73.5z" />
    <glyph glyph-name="Iota" unicode="&#x399;" horiz-adv-x="263" 
d="M90 0v656h83v-656h-83z" />
    <glyph glyph-name="Kappa" unicode="&#x39a;" horiz-adv-x="579" 
d="M90 0v656h83v-329h3l273 329h94l-205 -250l237 -406h-93l-196 341l-113 -133v-208h-83z" />
    <glyph glyph-name="Lambda" unicode="&#x39b;" horiz-adv-x="515" 
d="M0 0l209 656h96l210 -656h-88l-106 355q-6 19 -27.5 95.5t-36.5 121.5h-4q-13 -43 -33.5 -114.5t-29.5 -102.5l-105 -355h-85z" />
    <glyph glyph-name="Mu" unicode="&#x39c;" horiz-adv-x="727" 
d="M90 0v656h100l126 -350q8 -22 23.5 -68t23.5 -69h4q8 23 22.5 69t22.5 68l124 350h101v-656h-78v361q0 35 11 194h-4l-52 -149l-124 -340h-55l-124 340l-52 149h-4q10 -145 10 -194v-361h-75z" />
    <glyph glyph-name="Nu" unicode="&#x39d;" horiz-adv-x="647" 
d="M90 0v656h86l237 -412l71 -136h4q-10 165 -10 209v339h79v-656h-86l-238 413l-71 135h-4q11 -145 11 -205v-343h-79z" />
    <glyph glyph-name="Xi" unicode="&#x39e;" horiz-adv-x="533" 
d="M49 0v71h435v-71h-435zM124 309v71h285v-71h-285zM59 586v70h415v-70h-415z" />
    <glyph glyph-name="Omicron" unicode="&#x39f;" horiz-adv-x="664" 
d="M332 -12q-125 0 -202.5 93t-77.5 250q0 155 77.5 246t202.5 91t203 -91t78 -246q0 -157 -78 -250t-203 -93zM332 61q88 0 141 73.5t53 196.5q0 122 -53 193t-141 71t-141 -71t-53 -193q0 -123 53 -196.5t141 -73.5z" />
    <glyph glyph-name="Pi" unicode="&#x3a0;" horiz-adv-x="645" 
d="M90 0v656h465v-656h-83v586h-299v-586h-83z" />
    <glyph glyph-name="Rho" unicode="&#x3a1;" horiz-adv-x="566" 
d="M90 0v656h187q246 0 246 -193q0 -100 -65 -151.5t-177 -51.5h-108v-260h-83zM173 328h98q86 0 127.5 33t41.5 102t-42 97.5t-131 28.5h-94v-261z" />
    <glyph glyph-name="Sigma" unicode="&#x3a3;" horiz-adv-x="538" 
d="M44 0v50l226 283l-222 274v49h423v-70h-318l201 -251l-204 -264h351v-71h-457z" />
    <glyph glyph-name="Tau" unicode="&#x3a4;" horiz-adv-x="536" 
d="M226 0v586h-198v70h480v-70h-198v-586h-84z" />
    <glyph glyph-name="Upsilon" unicode="&#x3a5;" horiz-adv-x="476" 
d="M196 0v254l-197 402h89l85 -185q46 -105 63 -143h4q57 122 66 143l84 185h87l-197 -402v-254h-84z" />
    <glyph glyph-name="Phi" unicode="&#x3a6;" horiz-adv-x="719" 
d="M590 331q0 83 -52 134t-141 56v-385q88 5 140.5 58t52.5 137zM129 331q0 -84 52.5 -137t140.5 -58v385q-89 -5 -141 -56t-52 -134zM322 -22v93q-125 6 -199.5 75t-74.5 185q0 115 74 182t200 73v92h75v-92q126 -6 200 -73t74 -182q0 -116 -74.5 -185t-199.5 -75v-93h-75z
" />
    <glyph glyph-name="Chi" unicode="&#x3a7;" horiz-adv-x="513" 
d="M15 0l191 339l-178 317h92l89 -168q14 -25 51 -95h4q29 61 47 95l87 168h88l-179 -321l191 -335h-92l-96 177q-5 9 -24.5 45.5t-31.5 59.5h-4q-10 -20 -52 -105l-95 -177h-88z" />
    <glyph glyph-name="Psi" unicode="&#x3a8;" horiz-adv-x="699" 
d="M310 0v245q-247 11 -247 250v161h82v-157q0 -93 41 -138t124 -49v344h79v-344q83 5 123.5 49.5t40.5 137.5v157h83v-161q0 -239 -247 -250v-245h-79z" />
    <glyph glyph-name="uni03A9" unicode="&#x3a9;" horiz-adv-x="678" 
d="M45 0v68h131v4q-117 115 -117 279q0 140 77 228.5t203 88.5t203.5 -89t77.5 -228q0 -163 -118 -279v-4h131v-68h-233v61q134 105 134 285q0 109 -52.5 179t-142.5 70t-142 -70t-52 -179q0 -180 133 -285v-61h-233z" />
    <glyph glyph-name="Iotadieresis" unicode="&#x3aa;" horiz-adv-x="263" 
d="M90 0v656h83v-656h-83zM28 715q-21 0 -35 14t-14 35q0 22 14 35.5t35 13.5q22 0 35.5 -13.5t13.5 -35.5q0 -21 -13.5 -35t-35.5 -14zM234 715q-22 0 -35.5 14t-13.5 35q0 22 13.5 35.5t35.5 13.5q21 0 35 -13.5t14 -35.5q0 -21 -14 -35t-35 -14z" />
    <glyph glyph-name="Upsilondieresis" unicode="&#x3ab;" horiz-adv-x="476" 
d="M196 0v254l-197 402h89l85 -185q46 -105 63 -143h4q57 122 66 143l84 185h87l-197 -402v-254h-84zM135 715q-21 0 -35 14t-14 35q0 22 14 35.5t35 13.5q22 0 35.5 -13.5t13.5 -35.5q0 -21 -13.5 -35t-35.5 -14zM341 715q-22 0 -35.5 14t-13.5 35q0 22 13.5 35.5
t35.5 13.5q21 0 35 -13.5t14 -35.5q0 -21 -14 -35t-35 -14z" />
    <glyph glyph-name="alphatonos" unicode="&#x3ac;" horiz-adv-x="560" 
d="M233 -12q-85 0 -136 64.5t-51 181.5q0 120 62.5 192t150.5 72q49 0 89.5 -31t60.5 -96h2l21 115h81q-61 -300 -61 -379q0 -24 14 -37.5t34 -13.5q14 0 34 8l12 -63q-30 -13 -63 -13q-45 0 -70.5 24.5t-25.5 74.5h-3q-56 -99 -151 -99zM250 57q48 0 88 45t44 106l8 91
q-33 130 -122 130q-56 0 -96.5 -51.5t-40.5 -142.5q0 -85 31.5 -131.5t87.5 -46.5zM251 569l43 201l85 -15l-71 -197z" />
    <glyph glyph-name="epsilontonos" unicode="&#x3ad;" horiz-adv-x="448" 
d="M251 -12q-91 0 -148 39.5t-57 106.5q0 94 101 121v4q-37 13 -57 43t-20 65q0 64 53 97.5t133 33.5q85 0 157 -53l-33 -55q-58 43 -122 43q-47 0 -76.5 -20t-29.5 -56q0 -75 111 -75q23 0 61 3v-64q-29 2 -76 2q-120 0 -120 -82q0 -41 35 -64t97 -23q70 0 133 49l35 -55
q-79 -60 -177 -60zM214 569l43 201l85 -15l-71 -197z" />
    <glyph glyph-name="etatonos" unicode="&#x3ae;" horiz-adv-x="541" 
d="M382 -179q6 239 6 476q0 69 -18.5 99.5t-60.5 30.5q-40 0 -72 -24t-73 -85v-318h-82v353q0 73 -7 133h75l7 -101h3q39 58 79.5 85.5t93.5 27.5q69 0 100.5 -47.5t31.5 -142.5v-487h-83zM258 569l43 201l85 -15l-71 -197z" />
    <glyph glyph-name="iotatonos" unicode="&#x3af;" horiz-adv-x="262" 
d="M175 -12q-93 0 -93 113v385h83q-1 -44 -2.5 -126.5t-2.5 -147.5t-1 -117q0 -39 34 -39q12 0 30 6l11 -62q-26 -12 -59 -12zM91 569l43 201l85 -15l-71 -197z" />
    <glyph glyph-name="upsilondieresistonos" unicode="&#x3b0;" horiz-adv-x="510" 
d="M249 -12q-88 0 -136.5 48.5t-48.5 143.5q0 29 2 86.5t2 86.5q0 75 -8 133h80q8 -39 8 -113q0 -27 -3 -96.5t-3 -100.5q0 -61 30.5 -90.5t77.5 -29.5q55 0 88.5 46.5t33.5 137.5q0 120 -40 239l80 19q43 -129 43 -255q0 -121 -56 -188t-150 -67zM204 573l45 201l66 -14
l-68 -197zM131 595q-18 0 -30 11.5t-12 30.5t12 30.5t30 11.5q17 0 29 -11.5t12 -30.5t-12 -30.5t-29 -11.5zM357 595q-17 0 -29 11.5t-12 30.5t12 30.5t29 11.5q18 0 30 -11.5t12 -30.5t-12 -30.5t-30 -11.5z" />
    <glyph glyph-name="alpha" unicode="&#x3b1;" horiz-adv-x="560" 
d="M233 -12q-85 0 -136 64.5t-51 181.5q0 120 62.5 192t150.5 72q49 0 89.5 -31t60.5 -96h2l21 115h81q-61 -300 -61 -379q0 -24 14 -37.5t34 -13.5q14 0 34 8l12 -63q-30 -13 -63 -13q-45 0 -70.5 24.5t-25.5 74.5h-3q-56 -99 -151 -99zM250 57q48 0 88 45t44 106l8 91
q-33 130 -122 130q-56 0 -96.5 -51.5t-40.5 -142.5q0 -85 31.5 -131.5t87.5 -46.5z" />
    <glyph glyph-name="beta" unicode="&#x3b2;" horiz-adv-x="565" 
d="M79 -179v670q0 105 51 169t149 64q77 0 130 -45t53 -128q0 -106 -96 -166v-4q71 -10 113 -60.5t42 -127.5q0 -94 -56 -149.5t-134 -55.5q-107 0 -174 74q3 -84 5 -241h-83zM312 57q54 0 90.5 38t36.5 103q0 60 -35 98t-101 38q-26 0 -50 -6l-13 63q72 15 107 58t35 96
q0 54 -29 83t-72 29q-57 0 -88.5 -45.5t-32.5 -131.5q-3 -176 -3 -347q60 -76 155 -76z" />
    <glyph glyph-name="gamma" unicode="&#x3b3;" horiz-adv-x="484" 
d="M196 -179q5 55 5 121q0 117 -59.5 276t-135.5 259l83 21q48 -67 94 -179.5t66 -221.5h4q114 221 128 389h83q-20 -125 -62 -231t-131 -250q10 -73 10 -184h-85z" />
    <glyph glyph-name="delta" unicode="&#x3b4;" horiz-adv-x="531" 
d="M269 -12q-88 0 -152.5 60.5t-64.5 160.5q0 84 52 143t135 84q-65 46 -99.5 86.5t-34.5 92.5q0 47 40.5 78t118.5 31q89 0 209 -39l-20 -66q-113 41 -190 41q-40 0 -60 -14t-20 -36q0 -11 3.5 -21.5t12 -21.5t16.5 -19.5t24 -21t26 -20t31.5 -23t32.5 -23.5
q50 -37 79 -64.5t52.5 -74.5t23.5 -102q0 -105 -57 -168t-158 -63zM270 56q65 0 99 43.5t34 118.5q0 56 -28 97t-79 80q-77 -17 -120.5 -65.5t-43.5 -118.5q0 -69 41 -112t97 -43z" />
    <glyph glyph-name="epsilon" unicode="&#x3b5;" horiz-adv-x="448" 
d="M251 -12q-91 0 -148 39.5t-57 106.5q0 94 101 121v4q-37 13 -57 43t-20 65q0 64 53 97.5t133 33.5q85 0 157 -53l-33 -55q-58 43 -122 43q-47 0 -76.5 -20t-29.5 -56q0 -75 111 -75q23 0 61 3v-64q-29 2 -76 2q-120 0 -120 -82q0 -41 35 -64t97 -23q70 0 133 49l35 -55
q-79 -60 -177 -60z" />
    <glyph glyph-name="zeta" unicode="&#x3b6;" horiz-adv-x="424" 
d="M360 -184l-66 27q29 35 38.5 52t9.5 36q0 23 -21.5 35t-89.5 26q-85 17 -134 68.5t-49 161.5q0 105 83 227.5t185 200.5q-157 0 -237 -5v67h330v-67h-5q-100 -70 -185.5 -195.5t-85.5 -223.5q0 -81 36.5 -118t109.5 -50q74 -14 105.5 -37t31.5 -71q0 -57 -56 -134z" />
    <glyph glyph-name="eta" unicode="&#x3b7;" horiz-adv-x="541" 
d="M382 -179q6 239 6 476q0 69 -18.5 99.5t-60.5 30.5q-40 0 -72 -24t-73 -85v-318h-82v353q0 73 -7 133h75l7 -101h3q39 58 79.5 85.5t93.5 27.5q69 0 100.5 -47.5t31.5 -142.5v-487h-83z" />
    <glyph glyph-name="theta" unicode="&#x3b8;" horiz-adv-x="522" 
d="M261 -12q-97 0 -149.5 91.5t-52.5 279.5q0 176 53.5 270.5t148.5 94.5t148.5 -94.5t53.5 -270.5q0 -188 -52.5 -279.5t-149.5 -91.5zM261 656q-52 0 -84.5 -65t-36.5 -201h242q-4 136 -36.5 201t-84.5 65zM261 56q116 0 121 275h-242q5 -275 121 -275z" />
    <glyph glyph-name="iota" unicode="&#x3b9;" horiz-adv-x="262" 
d="M175 -12q-93 0 -93 113v385h83q-1 -44 -2.5 -126.5t-2.5 -147.5t-1 -117q0 -39 34 -39q12 0 30 6l11 -62q-26 -12 -59 -12z" />
    <glyph glyph-name="kappa" unicode="&#x3ba;" horiz-adv-x="494" 
d="M406 -8q-80 91 -162 246q-20 -24 -45 -59q-38 -52 -40 -154v-25h-77v353q0 85 -9 133h81q9 -33 9 -113v-152h4q61 106 138 182t151 95l8 -78q-78 -25 -169 -123q88 -172 202 -297z" />
    <glyph glyph-name="lambda" unicode="&#x3bb;" horiz-adv-x="494" 
d="M103 -8l-87 8l211 497l-6 21q-21 69 -48 102.5t-67 33.5q-27 0 -63 -16l-20 68q41 18 92 18q69 0 111.5 -50.5t76.5 -159.5l184 -514h-87l-134 403h-4z" />
    <glyph glyph-name="uni03BC" unicode="&#x3bc;" horiz-adv-x="562" 
d="M82 -179v665h82v-297q0 -130 89 -130q37 0 67.5 19.5t61.5 75.5v332h83q-1 -44 -2.5 -126.5t-2.5 -147.5t-1 -117q0 -39 36 -39q13 0 29 6l11 -62q-24 -12 -58 -12q-41 0 -62 22.5t-26 71.5h-2q-52 -92 -135 -92q-66 0 -94 47q1 -129 7 -216h-83z" />
    <glyph glyph-name="nu" unicode="&#x3bd;" horiz-adv-x="474" 
d="M193 0q-57 283 -187 477l83 21q48 -74 91.5 -191t65.5 -222h4q104 219 121 401h83q-36 -236 -180 -486h-81z" />
    <glyph glyph-name="xi" unicode="&#x3be;" horiz-adv-x="431" 
d="M367 -184l-66 27q29 35 38.5 52t9.5 36q0 23 -22.5 35.5t-88.5 25.5q-88 17 -138.5 60.5t-50.5 132.5q0 69 43 122t106 72v4q-46 19 -73.5 56t-27.5 88q0 86 72 123q-65 0 -141 -5v67h388v-67h-114q-51 0 -86.5 -32.5t-35.5 -87.5q0 -51 39 -86.5t85 -35.5q34 0 65 6v-70
q-26 6 -70 6q-66 0 -115.5 -41t-49.5 -108q0 -66 39 -95t117 -43q74 -14 104 -37t30 -71q0 -56 -57 -134z" />
    <glyph glyph-name="omicron" unicode="&#x3bf;" horiz-adv-x="535" 
d="M267 -12q-94 0 -157.5 68t-63.5 186q0 119 63 187.5t158 68.5t158.5 -68.5t63.5 -187.5q0 -118 -63.5 -186t-158.5 -68zM267 56q64 0 100.5 50.5t36.5 135.5q0 86 -36.5 137t-100.5 51t-100 -51t-36 -137q0 -85 36 -135.5t100 -50.5z" />
    <glyph glyph-name="pi" unicode="&#x3c0;" horiz-adv-x="586" 
d="M485 -12q-56 0 -81 30.5t-25 91.5q0 24 2 139t3 169h-172q0 -141 -29 -423l-83 5q35 218 35 418h-113v63l70 5h469v-68h-97q-8 -147 -8 -314q0 -48 46 -48q12 0 39 6l11 -63q-31 -11 -67 -11z" />
    <glyph glyph-name="rho" unicode="&#x3c1;" horiz-adv-x="549" 
d="M78 -179v427q0 121 60 185.5t154 64.5q101 0 155.5 -65.5t54.5 -182.5q0 -118 -59.5 -190t-140.5 -72q-87 0 -147 69q5 -142 6 -236h-83zM287 57q56 0 93 52.5t37 140.5q0 84 -31.5 131.5t-96.5 47.5q-57 0 -94.5 -47.5t-37.5 -134.5v-124q54 -66 130 -66z" />
    <glyph glyph-name="uni03C2" unicode="&#x3c2;" horiz-adv-x="432" 
d="M316 -180l-66 26q29 37 41 58t12 41q0 25 -15 41t-56 28q-40 14 -68.5 29t-57.5 42t-44.5 69.5t-15.5 99.5q0 113 63 178.5t154 65.5q79 0 140 -57l-42 -54q-48 43 -93 43q-61 0 -99 -48.5t-38 -127.5q0 -78 35.5 -114t102.5 -59q62 -20 85 -44.5t23 -73.5
q0 -61 -61 -143z" />
    <glyph glyph-name="sigma" unicode="&#x3c3;" horiz-adv-x="546" 
d="M264 -12q-93 0 -155.5 67t-62.5 183q0 120 64.5 184t157.5 64h266v-70q-95 7 -154 8v-4q96 -54 96 -193q0 -110 -60 -174.5t-152 -64.5zM265 56q58 0 94.5 48.5t36.5 129.5q0 77 -35 130.5t-95 53.5t-97.5 -46t-37.5 -134q0 -83 37.5 -132.5t96.5 -49.5z" />
    <glyph glyph-name="tau" unicode="&#x3c4;" horiz-adv-x="460" 
d="M288 -12q-54 0 -76.5 30t-22.5 92v309h-163v62l70 5h338v-67h-164q-4 -145 -4 -315q0 -48 41 -48q15 0 47 8l12 -63q-41 -13 -78 -13z" />
    <glyph glyph-name="upsilon" unicode="&#x3c5;" horiz-adv-x="510" 
d="M249 -12q-88 0 -136.5 48.5t-48.5 143.5q0 29 2 86.5t2 86.5q0 75 -8 133h80q8 -39 8 -113q0 -27 -3 -96.5t-3 -100.5q0 -61 30.5 -90.5t77.5 -29.5q55 0 88.5 46.5t33.5 137.5q0 120 -40 239l80 19q43 -129 43 -255q0 -121 -56 -188t-150 -67z" />
    <glyph glyph-name="phi" unicode="&#x3c6;" horiz-adv-x="680" 
d="M131 244q0 -84 49 -135.5t122 -54.5v378q-73 -3 -122 -53.5t-49 -134.5zM549 244q0 85 -47 135t-124 53v-378q74 3 122.5 54t48.5 136zM302 -179v170q-105 3 -180.5 71t-75.5 182q0 113 75.5 180.5t180.5 70.5v127h76v-127q107 -3 181.5 -70.5t74.5 -180.5
q0 -114 -75.5 -182t-180.5 -71v-170h-76z" />
    <glyph glyph-name="chi" unicode="&#x3c7;" horiz-adv-x="481" 
d="M92 -191l-83 12l193 342l-190 314l82 21l147 -260h4l125 248h87l-173 -321l204 -335l-80 -21l-163 287h-4z" />
    <glyph glyph-name="psi" unicode="&#x3c8;" horiz-adv-x="689" 
d="M304 -179v167q-119 1 -177.5 64t-58.5 171v130q0 73 -7 133h80q6 -41 6 -113q0 -30 -1 -86t-1 -69q0 -76 40.5 -119.5t118.5 -43.5v567h77v-567q168 6 168 208q0 105 -40 216l80 19q44 -119 44 -232q0 -130 -66 -202.5t-186 -75.5v-167h-77z" />
    <glyph glyph-name="omega" unicode="&#x3c9;" horiz-adv-x="701" 
d="M220 -12q-76 0 -122.5 62t-46.5 179q0 135 90 269l75 -33q-44 -64 -65 -121t-21 -130q0 -74 26 -116t68 -42q39 0 63.5 29.5t24.5 92.5q0 47 -8 130h90q-8 -83 -8 -130q0 -122 87 -122q42 0 67.5 43.5t25.5 127.5q0 72 -17.5 124t-60.5 116l74 31q44 -64 66 -125.5
t22 -140.5q0 -119 -44.5 -181.5t-122.5 -62.5q-96 0 -131 88h-4q-36 -88 -128 -88z" />
    <glyph glyph-name="iotadieresis" unicode="&#x3ca;" horiz-adv-x="262" 
d="M175 -12q-93 0 -93 113v385h83q-1 -44 -2.5 -126.5t-2.5 -147.5t-1 -117q0 -39 34 -39q12 0 30 6l11 -62q-26 -12 -59 -12zM28 587q-22 0 -36 14.5t-14 35.5t14 35.5t36 14.5q21 0 35 -14.5t14 -35.5t-14 -35.5t-35 -14.5zM220 587q-21 0 -35 14.5t-14 35.5t14 35.5
t35 14.5q22 0 36 -14.5t14 -35.5t-14 -35.5t-36 -14.5z" />
    <glyph glyph-name="upsilondieresis" unicode="&#x3cb;" horiz-adv-x="510" 
d="M249 -12q-88 0 -136.5 48.5t-48.5 143.5q0 29 2 86.5t2 86.5q0 75 -8 133h80q8 -39 8 -113q0 -27 -3 -96.5t-3 -100.5q0 -61 30.5 -90.5t77.5 -29.5q55 0 88.5 46.5t33.5 137.5q0 120 -40 239l80 19q43 -129 43 -255q0 -121 -56 -188t-150 -67zM148 587q-22 0 -36 14.5
t-14 35.5t14 35.5t36 14.5q21 0 35 -14.5t14 -35.5t-14 -35.5t-35 -14.5zM340 587q-21 0 -35 14.5t-14 35.5t14 35.5t35 14.5q22 0 36 -14.5t14 -35.5t-14 -35.5t-36 -14.5z" />
    <glyph glyph-name="omicrontonos" unicode="&#x3cc;" horiz-adv-x="535" 
d="M267 -12q-94 0 -157.5 68t-63.5 186q0 119 63 187.5t158 68.5t158.5 -68.5t63.5 -187.5q0 -118 -63.5 -186t-158.5 -68zM267 56q64 0 100.5 50.5t36.5 135.5q0 86 -36.5 137t-100.5 51t-100 -51t-36 -137q0 -85 36 -135.5t100 -50.5zM236 569l43 201l85 -15l-71 -197z
" />
    <glyph glyph-name="upsilontonos" unicode="&#x3cd;" horiz-adv-x="510" 
d="M249 -12q-88 0 -136.5 48.5t-48.5 143.5q0 29 2 86.5t2 86.5q0 75 -8 133h80q8 -39 8 -113q0 -27 -3 -96.5t-3 -100.5q0 -61 30.5 -90.5t77.5 -29.5q55 0 88.5 46.5t33.5 137.5q0 120 -40 239l80 19q43 -129 43 -255q0 -121 -56 -188t-150 -67zM211 569l43 201l85 -15
l-71 -197z" />
    <glyph glyph-name="omegatonos" unicode="&#x3ce;" horiz-adv-x="701" 
d="M220 -12q-76 0 -122.5 62t-46.5 179q0 135 90 269l75 -33q-44 -64 -65 -121t-21 -130q0 -74 26 -116t68 -42q39 0 63.5 29.5t24.5 92.5q0 47 -8 130h90q-8 -83 -8 -130q0 -122 87 -122q42 0 67.5 43.5t25.5 127.5q0 72 -17.5 124t-60.5 116l74 31q44 -64 66 -125.5
t22 -140.5q0 -119 -44.5 -181.5t-122.5 -62.5q-96 0 -131 88h-4q-36 -88 -128 -88zM317 569l43 201l85 -15l-71 -197z" />
    <glyph glyph-name="uni03D0" unicode="&#x3d0;" horiz-adv-x="560" 
d="M305 -12q-41 0 -79.5 13t-72.5 39.5t-54.5 74.5t-20.5 111v265q0 105 50 168t146 63q75 0 128.5 -44t53.5 -127q0 -112 -112 -166v-4q80 -7 126 -59.5t46 -132.5q0 -92 -60 -146.5t-151 -54.5zM158 480q0 -23 -0.5 -59t-0.5 -51q118 23 168.5 66.5t50.5 107.5
q0 54 -27.5 82t-69.5 28q-57 0 -88.5 -44.5t-32.5 -129.5zM303 60q58 0 94.5 36.5t36.5 97.5t-35.5 101t-105.5 40q-38 0 -137 -28v-69q0 -51 15 -88t38.5 -55.5t47 -26.5t46.5 -8z" />
    <glyph glyph-name="uni03D1" unicode="&#x3d1;" horiz-adv-x="522" 
d="M145 541q0 -34 10.5 -61.5t37 -52t72.5 -31.5t117 0q-8 262 -141 260q-42 0 -69 -32t-27 -83zM259 -12q-82 0 -126.5 45.5t-44.5 135.5q0 87 -8 122h78q7 -19 7 -112q0 -123 97 -123q56 0 87 62.5t33 222.5q-88 -12 -152.5 2.5t-98.5 48t-49.5 71t-15.5 79.5
q0 80 49.5 131t122.5 51q111 0 168 -91.5t57 -270.5q0 -200 -53 -287t-151 -87z" />
    <glyph glyph-name="uni03D5" unicode="&#x3d5;" horiz-adv-x="680" 
d="M303 -179v170q-109 3 -183 68.5t-74 183.5q0 133 107 259l67 -48q-47 -55 -68.5 -105t-21.5 -115q0 -82 48 -129t125 -51v242q0 100 40.5 151t107.5 51q83 0 133 -66t50 -178q0 -118 -74.5 -189t-181.5 -74q1 -29 2.5 -85.5t1.5 -84.5h-79zM376 299q0 -81 2 -245
q76 4 123.5 56t47.5 140q0 81 -29 130t-73 49q-32 0 -51.5 -33t-19.5 -97z" />
    <glyph glyph-name="uni03D7" unicode="&#x3d7;" horiz-adv-x="494" 
d="M362 -187l-96 8q77 80 139 173q-82 93 -161 244q-20 -24 -45 -59q-38 -52 -40 -154v-25h-77v353q0 85 -9 133h81q9 -33 9 -113v-152h4q61 106 138 182t151 95l8 -78q-78 -25 -169 -123q88 -172 202 -297q-67 -107 -135 -187z" />
    <glyph glyph-name="uni03D9" unicode="&#x3d9;" horiz-adv-x="535" 
d="M267 54q64 0 100.5 51t36.5 137t-36.5 137t-100.5 51t-100 -51t-36 -137t36 -137t100 -51zM230 -179v170q-81 13 -132.5 79.5t-51.5 171.5q0 119 63 187.5t158 68.5t158.5 -68.5t63.5 -187.5q0 -104 -50 -169.5t-130 -80.5q3 -87 4 -171h-83z" />
    <glyph glyph-name="uni03DB" unicode="&#x3db;" horiz-adv-x="466" 
d="M351 -184l-66 27q28 34 38.5 52t10.5 35q0 23 -17.5 38t-71.5 28q-199 49 -199 242q0 122 67.5 185t175.5 63h151v-70q-39 2 -145 2q-77 0 -120.5 -45.5t-43.5 -134.5q0 -75 40 -115.5t114 -58.5q69 -17 96 -42.5t27 -71.5q0 -55 -57 -134z" />
    <glyph glyph-name="uni03DD" unicode="&#x3dd;" horiz-adv-x="413" 
d="M82 -179v665h305v-67h-228l2 -217h206v-59h-206q0 -88 4 -322h-83z" />
    <glyph glyph-name="uni03E1" unicode="&#x3e1;" horiz-adv-x="498" 
d="M456 -179l-80 10q18 89 18 186q0 67 -10 126q-130 -59 -253 -121l-34 69l272 122q-15 63 -42 119q-129 -57 -276 -131l-34 69l278 125q-88 149 -233 234l51 61q172 -104 266.5 -283.5t94.5 -390.5q0 -105 -18 -195z" />
    <glyph glyph-name="uni0400" unicode="&#x400;" horiz-adv-x="527" 
d="M90 0v656h378v-70h-295v-206h249v-71h-249v-238h305v-71h-388zM301 697l-152 115l47 55l142 -128z" />
    <glyph glyph-name="uni0401" unicode="&#x401;" horiz-adv-x="527" 
d="M90 0v656h378v-70h-295v-206h249v-71h-249v-238h305v-71h-388zM181 715q-21 0 -35 14t-14 35q0 22 14 35.5t35 13.5q22 0 35.5 -13.5t13.5 -35.5q0 -21 -13.5 -35t-35.5 -14zM387 715q-22 0 -35.5 14t-13.5 35q0 22 13.5 35.5t35.5 13.5q21 0 35 -13.5t14 -35.5
q0 -21 -14 -35t-35 -14z" />
    <glyph glyph-name="uni0402" unicode="&#x402;" horiz-adv-x="687" 
d="M458 -12q-34 0 -64 10l15 67q18 -8 39 -8q42 0 74.5 32.5t32.5 101.5q0 141 -161 141q-57 0 -104 -10v-322h-84v586h-178v70h491v-70h-229v-195q53 10 115 10q106 0 169.5 -51.5t63.5 -157.5q0 -105 -51.5 -154.5t-128.5 -49.5z" />
    <glyph glyph-name="uni0403" unicode="&#x403;" horiz-adv-x="498" 
d="M90 0v656h378v-70h-295v-586h-83zM273 697l-37 42l142 128l47 -55z" />
    <glyph glyph-name="uni0404" unicode="&#x404;" horiz-adv-x="571" 
d="M338 -12q-130 0 -208 88.5t-78 251.5q0 162 79.5 251t210.5 89q109 0 181 -81l-45 -54q-59 62 -135 62q-88 0 -142.5 -56t-64.5 -159h275v-71h-276q4 -122 58 -185t148 -63q84 0 152 74l46 -52q-82 -95 -201 -95z" />
    <glyph glyph-name="uni0405" unicode="&#x405;" horiz-adv-x="534" 
d="M272 -12q-136 0 -230 97l50 58q79 -82 181 -82q64 0 100.5 29t36.5 78q0 24 -7 41.5t-25.5 31.5t-32.5 21.5t-44 21.5l-94 41q-133 56 -133 169q0 75 58.5 124.5t147.5 49.5q115 0 194 -81l-45 -54q-65 62 -149 62q-55 0 -88.5 -26t-33.5 -70q0 -22 8.5 -39.5t27.5 -31
t33 -20.5t40 -18l93 -40q65 -28 100 -68t35 -107q0 -80 -61 -133.5t-162 -53.5z" />
    <glyph glyph-name="uni0406" unicode="&#x406;" horiz-adv-x="263" 
d="M90 0v656h83v-656h-83z" />
    <glyph glyph-name="uni0407" unicode="&#x407;" horiz-adv-x="263" 
d="M90 0v656h83v-656h-83zM28 715q-21 0 -35 14t-14 35q0 22 14 35.5t35 13.5q22 0 35.5 -13.5t13.5 -35.5q0 -21 -13.5 -35t-35.5 -14zM234 715q-22 0 -35.5 14t-13.5 35q0 22 13.5 35.5t35.5 13.5q21 0 35 -13.5t14 -35.5q0 -21 -14 -35t-35 -14z" />
    <glyph glyph-name="uni0408" unicode="&#x408;" horiz-adv-x="480" 
d="M212 -12q-123 0 -181 105l60 42q41 -74 113 -74q53 0 79 33t26 107v455h84v-463q0 -91 -45 -148t-136 -57z" />
    <glyph glyph-name="uni0409" unicode="&#x409;" horiz-adv-x="903" 
d="M62 -12q-33 0 -56 9l17 77q14 -6 28 -6q20 0 33 11t28.5 50.5t30.5 114.5q29 148 75 412h308v-269h91q113 0 177.5 -45t64.5 -140q0 -102 -63.5 -152t-177.5 -50h-175v586h-160q-7 -39 -28 -162.5t-33 -189.5q-27 -145 -62.5 -195.5t-97.5 -50.5zM526 68h81
q170 0 170 132q0 120 -172 120h-79v-252z" />
    <glyph glyph-name="uni040A" unicode="&#x40a;" horiz-adv-x="929" 
d="M90 0v656h83v-275h295v275h84v-269h91q113 0 177.5 -45t64.5 -140q0 -102 -63.5 -152t-177.5 -50h-176v309h-295v-309h-83zM552 68h81q170 0 170 132q0 120 -172 120h-79v-252z" />
    <glyph glyph-name="uni040B" unicode="&#x40b;" horiz-adv-x="696" 
d="M206 0v586h-178v70h491v-70h-229v-195q53 10 111 10q228 0 228 -206v-195h-82v195q0 72 -37.5 104.5t-116.5 32.5q-56 0 -103 -10v-322h-84z" />
    <glyph glyph-name="uni040C" unicode="&#x40c;" horiz-adv-x="580" 
d="M90 0v656h83v-277h113l92 167q40 72 71 97t77 25q21 0 36 -6l-14 -78q-11 4 -24 4q-22 0 -39.5 -16t-45.5 -67l-87 -155l226 -350h-91l-202 311h-112v-311h-83zM306 701l-37 42l142 128l47 -55z" />
    <glyph glyph-name="uni040D" unicode="&#x40d;" horiz-adv-x="656" 
d="M90 0v656h82v-339q0 -44 -10 -209h4l71 134l241 414h88v-656h-82v343q0 40 10 205h-4l-71 -134l-241 -414h-88zM349 701l-152 115l47 55l142 -128z" />
    <glyph glyph-name="uni040E" unicode="&#x40e;" horiz-adv-x="514" 
d="M136 -12q-39 0 -65 10l17 75q19 -7 42 -7q59 0 85 53l14 35l-224 502h89l122 -292l50 -129h4l46 129l113 292h85l-215 -537q-53 -131 -163 -131zM257 705q-77 0 -112.5 37.5t-38.5 94.5h72q4 -86 79 -86t79 86h72q-3 -57 -38.5 -94.5t-112.5 -37.5z" />
    <glyph glyph-name="uni040F" unicode="&#x40f;" horiz-adv-x="645" 
d="M90 0v656h83v-585h299v585h83v-656h-187l-8 -188h-73v188h-197z" />
    <glyph glyph-name="uni0410" unicode="&#x410;" horiz-adv-x="544" 
d="M203 367l-31 -100h197l-31 100q-31 94 -66 221h-4q-31 -117 -65 -221zM3 0l222 656h94l222 -656h-89l-62 200h-239l-63 -200h-85z" />
    <glyph glyph-name="uni0411" unicode="&#x411;" horiz-adv-x="580" 
d="M90 0v656h405v-70h-322v-206h126q111 0 175.5 -43.5t64.5 -137.5q0 -100 -62 -149.5t-174 -49.5h-213zM173 66h116q168 0 168 131q0 62 -42 90.5t-128 28.5h-114v-250z" />
    <glyph glyph-name="uni0412" unicode="&#x412;" horiz-adv-x="588" 
d="M90 0v656h195q225 0 225 -160q0 -50 -25.5 -89t-70.5 -54v-4q62 -12 98 -52t36 -105q0 -94 -67.5 -143t-181.5 -49h-209zM173 377h97q158 0 158 108q0 56 -38 80.5t-116 24.5h-101v-213zM173 66h114q179 0 179 129q0 118 -179 118h-114v-247z" />
    <glyph glyph-name="uni0413" unicode="&#x413;" horiz-adv-x="498" 
d="M90 0v656h378v-70h-295v-586h-83z" />
    <glyph glyph-name="uni0414" unicode="&#x414;" horiz-adv-x="638" 
d="M108 0v-188h-73l-9 209v50h30q51 21 91 236q24 131 60 349h332v-585h73v-50l-9 -209h-73v188h-422zM223 293q-31 -162 -73 -222h305v515h-183q-10 -55 -24.5 -146t-24.5 -147z" />
    <glyph glyph-name="uni0415" unicode="&#x415;" horiz-adv-x="527" 
d="M90 0v656h378v-70h-295v-206h249v-71h-249v-238h305v-71h-388z" />
    <glyph glyph-name="uni0416" unicode="&#x416;" horiz-adv-x="805" 
d="M6 0l200 350l-69 155q-24 51 -42.5 67t-43.5 16q-13 0 -24 -4l-14 78q15 6 36 6q47 0 80.5 -25.5t67.5 -96.5l77 -167h89v277h79v-277h88l78 167q34 71 67.5 96.5t80.5 25.5q21 0 36 -6l-14 -78q-12 4 -24 4q-25 0 -43.5 -16t-42.5 -67l-69 -155l199 -350h-91l-170 311
h-95v-311h-79v311h-95l-170 -311h-92z" />
    <glyph glyph-name="uni0417" unicode="&#x417;" horiz-adv-x="554" 
d="M278 -12q-143 0 -236 96l47 57q43 -43 87 -61.5t101 -18.5q66 0 110.5 34.5t44.5 94.5q0 123 -177 123h-74v64h54q163 0 163 113q0 50 -35.5 77.5t-92.5 27.5q-88 0 -154 -61l-45 56q80 78 201 78q94 0 151 -45t57 -123q0 -52 -25.5 -91.5t-72.5 -56.5v-4
q59 -12 95.5 -54.5t36.5 -107.5q0 -92 -67 -145t-169 -53z" />
    <glyph glyph-name="uni0418" unicode="&#x418;" horiz-adv-x="656" 
d="M90 0v656h82v-339q0 -44 -10 -209h4l71 134l241 414h88v-656h-82v343q0 40 10 205h-4l-71 -134l-241 -414h-88z" />
    <glyph glyph-name="uni0419" unicode="&#x419;" horiz-adv-x="656" 
d="M90 0v656h82v-339q0 -44 -10 -209h4l71 134l241 414h88v-656h-82v343q0 40 10 205h-4l-71 -134l-241 -414h-88zM332 709q-77 0 -112.5 37.5t-38.5 94.5h72q4 -86 79 -86t79 86h72q-3 -57 -38.5 -94.5t-112.5 -37.5z" />
    <glyph glyph-name="uni041A" unicode="&#x41a;" horiz-adv-x="580" 
d="M90 0v656h83v-277h113l92 167q40 72 71 97t77 25q21 0 36 -6l-14 -78q-11 4 -24 4q-22 0 -39.5 -16t-45.5 -67l-87 -155l226 -350h-91l-202 311h-112v-311h-83z" />
    <glyph glyph-name="uni041B" unicode="&#x41b;" horiz-adv-x="630" 
d="M56 -12q-33 0 -56 9l17 77q15 -6 28 -6q30 0 50 34t42 142q29 148 75 412h328v-656h-83v586h-180q-55 -312 -62 -351q-27 -145 -62 -196t-97 -51z" />
    <glyph glyph-name="uni041C" unicode="&#x41c;" horiz-adv-x="727" 
d="M90 0v656h100l126 -350q8 -22 23.5 -68t23.5 -69h4q8 23 22.5 69t22.5 68l124 350h101v-656h-78v361q0 35 11 194h-4l-52 -149l-124 -340h-55l-124 340l-52 149h-4q10 -145 10 -194v-361h-75z" />
    <glyph glyph-name="uni041D" unicode="&#x41d;" horiz-adv-x="652" 
d="M90 0v656h83v-275h305v275h84v-656h-84v309h-305v-309h-83z" />
    <glyph glyph-name="uni041E" unicode="&#x41e;" horiz-adv-x="664" 
d="M332 -12q-125 0 -202.5 93t-77.5 250q0 155 77.5 246t202.5 91t203 -91t78 -246q0 -157 -78 -250t-203 -93zM332 61q88 0 141 73.5t53 196.5q0 122 -53 193t-141 71t-141 -71t-53 -193q0 -123 53 -196.5t141 -73.5z" />
    <glyph glyph-name="uni041F" unicode="&#x41f;" horiz-adv-x="645" 
d="M90 0v656h465v-656h-83v586h-299v-586h-83z" />
    <glyph glyph-name="uni0420" unicode="&#x420;" horiz-adv-x="566" 
d="M90 0v656h187q246 0 246 -193q0 -100 -65 -151.5t-177 -51.5h-108v-260h-83zM173 328h98q86 0 127.5 33t41.5 102t-42 97.5t-131 28.5h-94v-261z" />
    <glyph glyph-name="uni0421" unicode="&#x421;" horiz-adv-x="571" 
d="M338 -12q-126 0 -206 91.5t-80 248.5q0 155 81.5 247.5t209.5 92.5q108 0 180 -81l-45 -54q-59 62 -134 62q-93 0 -149.5 -71.5t-56.5 -193.5q0 -124 55 -196.5t148 -72.5q84 0 152 74l46 -52q-82 -95 -201 -95z" />
    <glyph glyph-name="uni0422" unicode="&#x422;" horiz-adv-x="536" 
d="M226 0v586h-198v70h480v-70h-198v-586h-84z" />
    <glyph glyph-name="uni0423" unicode="&#x423;" horiz-adv-x="514" 
d="M136 -12q-39 0 -65 10l17 75q19 -7 42 -7q59 0 85 53l14 35l-224 502h89l122 -292l50 -129h4l46 129l113 292h85l-215 -537q-53 -131 -163 -131z" />
    <glyph glyph-name="uni0424" unicode="&#x424;" horiz-adv-x="732" 
d="M127 331q0 -85 52.5 -133.5t149.5 -51.5v365q-98 -3 -150 -49t-52 -131zM605 331q0 85 -52 131t-150 49v-365q97 3 149.5 51.5t52.5 133.5zM329 -12v94q-134 5 -208 69.5t-74 179.5q0 114 74 177t208 67v93h74v-93q134 -4 208 -67t74 -177q0 -115 -74 -179.5t-208 -69.5
v-94h-74z" />
    <glyph glyph-name="uni0425" unicode="&#x425;" horiz-adv-x="513" 
d="M15 0l191 339l-178 317h92l89 -168q14 -25 51 -95h4q29 61 47 95l87 168h88l-179 -321l191 -335h-92l-96 177q-5 9 -24.5 45.5t-31.5 59.5h-4q-10 -20 -52 -105l-95 -177h-88z" />
    <glyph glyph-name="uni0426" unicode="&#x426;" horiz-adv-x="642" 
d="M90 0v656h83v-585h287v585h83v-585h73v-50l-9 -209h-73v188h-444z" />
    <glyph glyph-name="uni0427" unicode="&#x427;" horiz-adv-x="598" 
d="M425 0v294q-53 -10 -120 -10q-116 0 -177 50t-61 164v158h82v-158q0 -79 40.5 -112t123.5 -33q67 0 112 10v293h83v-656h-83z" />
    <glyph glyph-name="uni0428" unicode="&#x428;" horiz-adv-x="865" 
d="M90 0v656h82v-585h220v585h81v-585h220v585h82v-656h-685z" />
    <glyph glyph-name="uni0429" unicode="&#x429;" horiz-adv-x="874" 
d="M766 -188v188h-676v656h82v-585h220v585h81v-585h220v585h82v-585h73v-50l-9 -209h-73z" />
    <glyph glyph-name="uni042A" unicode="&#x42a;" horiz-adv-x="720" 
d="M238 0v586h-210v70h294v-269h108q111 0 178.5 -46t67.5 -139q0 -102 -63.5 -152t-176.5 -50h-198zM322 68h104q84 0 126 31.5t42 100.5q0 120 -175 120h-97v-252z" />
    <glyph glyph-name="uni042B" unicode="&#x42b;" horiz-adv-x="798" 
d="M90 0v656h83v-269h102q113 0 177.5 -45t64.5 -140q0 -102 -63.5 -152t-177.5 -50h-186zM173 68h93q169 0 169 132q0 120 -172 120h-90v-252zM625 0v656h83v-656h-83z" />
    <glyph glyph-name="uni042C" unicode="&#x42c;" horiz-adv-x="580" 
d="M90 0v656h83v-269h121q113 0 177.5 -45t64.5 -140q0 -102 -63.5 -152t-177.5 -50h-205zM173 68h111q170 0 170 132q0 120 -172 120h-109v-252z" />
    <glyph glyph-name="uni042D" unicode="&#x42d;" horiz-adv-x="571" 
d="M243 -12q-124 0 -211 95l46 52q71 -74 163 -74q88 0 139 63t55 185h-275v71h274q-9 104 -59 159.5t-135 55.5t-147 -62l-46 54q34 35 86 58t110 23q127 0 201.5 -88.5t74.5 -251.5t-76 -251.5t-200 -88.5z" />
    <glyph glyph-name="uni042E" unicode="&#x42e;" horiz-adv-x="908" 
d="M586 -12q-117 0 -189 86.5t-78 234.5h-146v-309h-83v656h83v-275h148q12 135 83 211t182 76q122 0 196 -91t74 -246q0 -157 -74 -250t-196 -93zM586 61q85 0 134.5 73t49.5 197q0 122 -49.5 193t-134.5 71t-134 -71t-49 -193q0 -123 49.5 -196.5t133.5 -73.5z" />
    <glyph glyph-name="uni042F" unicode="&#x42f;" horiz-adv-x="582" 
d="M409 0v277h-121l-170 -277h-96l183 286q-68 17 -108 64t-40 122q0 184 230 184h205v-656h-83zM299 345h110v244h-110q-79 0 -119 -27.5t-40 -89.5q0 -127 159 -127z" />
    <glyph glyph-name="uni0430" unicode="&#x430;" horiz-adv-x="504" 
d="M194 -12q-62 0 -102 37t-40 101q0 79 71 122t227 60q0 122 -100 122q-69 0 -145 -52l-32 57q98 63 191 63q86 0 127.5 -52.5t41.5 -147.5v-298h-68l-7 58h-3q-85 -70 -161 -70zM218 54q59 0 132 65v135q-118 -15 -168 -44.5t-50 -77.5q0 -39 24 -58.5t62 -19.5z" />
    <glyph glyph-name="uni0431" unicode="&#x431;" horiz-adv-x="544" 
d="M282 -12q-109 0 -169 80t-60 227q0 96 15 165.5t38.5 111.5t65 69.5t82.5 40t104 21.5t101 27l16 -75q-32 -21 -100 -31q-41 -6 -62.5 -10t-50 -12t-43 -18t-31.5 -27t-25.5 -40t-16 -55t-10.5 -75q66 81 165 81q88 0 141.5 -61t53.5 -166q0 -114 -61.5 -183.5
t-152.5 -69.5zM282 56q57 0 93 51.5t36 133.5q0 76 -34.5 120t-96.5 44q-83 0 -148 -88v-38q0 -107 38.5 -165t111.5 -58z" />
    <glyph glyph-name="uni0432" unicode="&#x432;" horiz-adv-x="508" 
d="M82 0v486h187q179 0 179 -123q0 -80 -81 -104v-3q102 -24 102 -117q0 -69 -52 -104t-140 -35h-195zM163 282h92q113 0 113 73q0 72 -107 72h-98v-145zM163 59h105q119 0 119 85q0 37 -31.5 58t-92.5 21h-100v-164z" />
    <glyph glyph-name="uni0433" unicode="&#x433;" horiz-adv-x="411" 
d="M82 0v486h303v-67h-221v-419h-82z" />
    <glyph glyph-name="uni0434" unicode="&#x434;" horiz-adv-x="532" 
d="M99 0v-172h-71l-9 187v52h24q23 13 39 54.5t29 149.5l26 215h302v-419h71v-52l-8 -187h-71v172h-332zM183 255q-15 -132 -52 -188h226v352h-155z" />
    <glyph glyph-name="uni0435" unicode="&#x435;" horiz-adv-x="496" 
d="M279 -12q-100 0 -166.5 69t-66.5 185q0 114 65 185t153 71q92 0 143 -61.5t51 -166.5q0 -29 -3 -47h-328q5 -77 48.5 -123t113.5 -46q62 0 121 38l29 -54q-78 -50 -160 -50zM126 282h260q0 73 -31.5 112t-88.5 39q-53 0 -93 -40.5t-47 -110.5z" />
    <glyph glyph-name="uni0436" unicode="&#x436;" horiz-adv-x="681" 
d="M13 0l153 256l-39 96q-16 39 -32 52.5t-38 13.5q-10 0 -16 -2l-15 77q13 5 29 5q42 0 73 -23t55 -81l46 -108h75v200h73v-200h75l46 108q24 58 55 81t73 23q16 0 28 -5l-14 -77q-6 2 -16 2q-22 0 -38.5 -13.5t-32.5 -52.5l-38 -96l153 -256h-89l-122 219h-80v-219h-73
v219h-80l-122 -219h-89z" />
    <glyph glyph-name="uni0437" unicode="&#x437;" horiz-adv-x="456" 
d="M221 -12q-109 0 -184 62l35 53q60 -49 142 -49q51 0 86 24t35 63q0 82 -124 82h-67v59h55q117 0 117 77q0 36 -27.5 55t-73.5 19q-72 0 -132 -43l-35 54q77 54 171 54q76 0 126.5 -33.5t50.5 -97.5q0 -35 -21.5 -64t-58.5 -44v-4q101 -27 101 -121q0 -65 -57.5 -105.5
t-138.5 -40.5z" />
    <glyph glyph-name="uni0438" unicode="&#x438;" horiz-adv-x="565" 
d="M82 0v486h80v-202q0 -55 -8 -179h4q6 11 30 49t34 55l184 277h77v-486h-80v202q0 54 8 180h-4q-8 -13 -31.5 -50.5t-32.5 -53.5l-185 -278h-76z" />
    <glyph glyph-name="uni0439" unicode="&#x439;" horiz-adv-x="565" 
d="M82 0v486h80v-202q0 -55 -8 -179h4q6 11 30 49t34 55l184 277h77v-486h-80v202q0 54 8 180h-4q-8 -13 -31.5 -50.5t-32.5 -53.5l-185 -278h-76zM285 573q-78 0 -116 43.5t-41 109.5h68q4 -105 89 -105t89 105h68q-3 -66 -41 -109.5t-116 -43.5z" />
    <glyph glyph-name="uni043A" unicode="&#x43a;" horiz-adv-x="498" 
d="M82 0v486h82v-200h94l48 108q26 60 55.5 82t72.5 22q16 0 28 -5l-14 -77q-6 2 -16 2q-22 0 -38 -13t-33 -53l-41 -96l165 -256h-90l-135 219h-96v-219h-82z" />
    <glyph glyph-name="uni043B" unicode="&#x43b;" horiz-adv-x="531" 
d="M54 -12q-22 0 -44 8l16 76q12 -4 22 -4q52 0 65 103q13 105 37 315h299v-486h-83v419h-151q-12 -111 -32 -269q-21 -162 -129 -162z" />
    <glyph glyph-name="uni043C" unicode="&#x43c;" horiz-adv-x="633" 
d="M82 0v486h95l95 -228q38 -102 44 -118h4q36 95 44 118l93 228h94v-486h-75v218q0 43 10 168h-4q-8 -22 -25.5 -65.5t-19.5 -49.5l-92 -225h-55l-94 225q-2 6 -19.5 49.5t-25.5 65.5h-4q9 -150 9 -168v-218h-74z" />
    <glyph glyph-name="uni043D" unicode="&#x43d;" horiz-adv-x="562" 
d="M82 0v486h82v-197h234v197h82v-486h-82v216h-234v-216h-82z" />
    <glyph glyph-name="uni043E" unicode="&#x43e;" horiz-adv-x="542" 
d="M271 -12q-94 0 -159.5 69t-65.5 185q0 118 65.5 187t159.5 69t159.5 -69t65.5 -187q0 -116 -65.5 -185t-159.5 -69zM271 56q63 0 101.5 51.5t38.5 134.5q0 84 -38.5 136t-101.5 52q-62 0 -101 -52t-39 -136q0 -83 39 -134.5t101 -51.5z" />
    <glyph glyph-name="uni043F" unicode="&#x43f;" horiz-adv-x="553" 
d="M82 0v486h389v-486h-82v419h-225v-419h-82z" />
    <glyph glyph-name="uni0440" unicode="&#x440;" horiz-adv-x="555" 
d="M82 -205v691h68l7 -56h3q81 68 155 68q92 0 142 -66.5t50 -181.5q0 -119 -61.5 -190.5t-148.5 -71.5q-63 0 -135 56l2 -85v-164h-82zM283 57q61 0 100 52.5t39 140.5q0 179 -128 179q-56 0 -130 -66v-255q61 -51 119 -51z" />
    <glyph glyph-name="uni0441" unicode="&#x441;" horiz-adv-x="456" 
d="M274 -12q-100 0 -164 68t-64 186t68 187t166 69q79 0 142 -57l-42 -54q-48 43 -97 43q-66 0 -109 -52.5t-43 -135.5t41.5 -134.5t108.5 -51.5q60 0 114 49l36 -55q-70 -62 -157 -62z" />
    <glyph glyph-name="uni0442" unicode="&#x442;" horiz-adv-x="460" 
d="M189 0v419h-163v67h408v-67h-163v-419h-82z" />
    <glyph glyph-name="uni0443" unicode="&#x443;" horiz-adv-x="467" 
d="M90 -209q-30 0 -57 10l16 65q23 -7 37 -7q75 0 110 104l11 36l-195 487h85l99 -269q20 -56 47 -137h4q8 26 23 76t18 61l87 269h80l-183 -526q-28 -80 -70.5 -124.5t-111.5 -44.5z" />
    <glyph glyph-name="uni0444" unicode="&#x444;" horiz-adv-x="734" 
d="M327 -205v156l2 73q-49 -36 -98 -36q-84 0 -134 67t-50 187q0 115 54 185.5t130 70.5q47 0 98 -35l-2 72v177h80v-177l-2 -74q52 37 105 37q84 0 130.5 -66.5t46.5 -181.5q0 -120 -54 -191t-132 -71q-45 0 -96 35l2 -72v-156h-80zM249 57q44 0 80 35v304q-37 33 -84 33
q-49 0 -81 -52t-32 -134q0 -87 31 -136.5t86 -49.5zM487 57q52 0 83.5 52t31.5 141q0 179 -112 179q-46 0 -85 -34v-305q37 -33 82 -33z" />
    <glyph glyph-name="uni0445" unicode="&#x445;" horiz-adv-x="446" 
d="M14 0l159 254l-147 232h89l65 -107q33 -57 48 -81h4q24 47 44 81l59 107h86l-147 -241l158 -245h-89l-71 113q-30 52 -53 87h-4q-21 -35 -49 -87l-66 -113h-86z" />
    <glyph glyph-name="uni0446" unicode="&#x446;" horiz-adv-x="554" 
d="M82 0v486h82v-419h218v419h82v-419h71v-52l-8 -187h-71v172h-374z" />
    <glyph glyph-name="uni0447" unicode="&#x447;" horiz-adv-x="512" 
d="M348 0v194q-49 -10 -95 -10q-194 0 -194 169v133h82v-133q0 -54 30.5 -78t97.5 -24q37 0 79 9v226h82v-486h-82z" />
    <glyph glyph-name="uni0448" unicode="&#x448;" horiz-adv-x="749" 
d="M82 0v486h82v-419h171v419h79v-419h172v419h81v-486h-585z" />
    <glyph glyph-name="uni0449" unicode="&#x449;" horiz-adv-x="757" 
d="M659 -172v172h-577v486h82v-419h171v419h79v-419h172v419h81v-419h71v-52l-8 -187h-71z" />
    <glyph glyph-name="uni044A" unicode="&#x44a;" horiz-adv-x="596" 
d="M198 0v419h-172v67h254v-179h81q91 0 142 -37.5t51 -114.5q0 -78 -51 -116.5t-142 -38.5h-163zM280 66h73q121 0 121 89q0 88 -121 88h-73v-177z" />
    <glyph glyph-name="uni044B" unicode="&#x44b;" horiz-adv-x="674" 
d="M82 0v486h82v-179h69q90 0 141.5 -37.5t51.5 -114.5q0 -78 -51.5 -116.5t-141.5 -38.5h-151zM164 66h60q121 0 121 89q0 88 -121 88h-60v-177zM510 0v486h82v-486h-82z" />
    <glyph glyph-name="uni044C" unicode="&#x44c;" horiz-adv-x="491" 
d="M82 0v486h82v-179h92q90 0 141.5 -37.5t51.5 -114.5q0 -78 -51.5 -116.5t-141.5 -38.5h-174zM164 66h83q121 0 121 89q0 88 -121 88h-83v-177z" />
    <glyph glyph-name="uni044D" unicode="&#x44d;" horiz-adv-x="456" 
d="M183 -12q-94 0 -159 62l34 50q51 -46 118 -46q68 0 109.5 43t45.5 126h-215v59h213q-9 74 -48 112.5t-98 38.5q-60 0 -110 -43l-39 50q62 58 154 58q96 0 159 -65.5t63 -190.5q0 -123 -62.5 -188.5t-164.5 -65.5z" />
    <glyph glyph-name="uni044E" unicode="&#x44e;" horiz-adv-x="738" 
d="M482 -12q-87 0 -146 60t-67 165h-105v-213h-82v486h82v-200h106q12 99 70 155.5t142 56.5q90 0 150 -68.5t60 -187.5q0 -117 -60 -185.5t-150 -68.5zM478 56q59 0 94 51t35 135q0 85 -35 136.5t-94 51.5t-95.5 -52t-36.5 -136q0 -83 36.5 -134.5t95.5 -51.5z" />
    <glyph glyph-name="uni044F" unicode="&#x44f;" horiz-adv-x="514" 
d="M350 0v192h-90h-1l-134 -192h-93l148 203q-111 34 -111 139q0 144 191 144h172v-486h-82zM274 252h76v170h-76q-122 0 -122 -82q0 -42 32 -65t90 -23z" />
    <glyph glyph-name="uni0450" unicode="&#x450;" horiz-adv-x="496" 
d="M279 -12q-100 0 -166.5 69t-66.5 185q0 114 65 185t153 71q92 0 143 -61.5t51 -166.5q0 -29 -3 -47h-328q5 -77 48.5 -123t113.5 -46q62 0 121 38l29 -54q-78 -50 -160 -50zM126 282h260q0 73 -31.5 112t-88.5 39q-53 0 -93 -40.5t-47 -110.5zM278 573l-157 153l58 55
l141 -167z" />
    <glyph glyph-name="uni0451" unicode="&#x451;" horiz-adv-x="496" 
d="M279 -12q-100 0 -166.5 69t-66.5 185q0 114 65 185t153 71q92 0 143 -61.5t51 -166.5q0 -29 -3 -47h-328q5 -77 48.5 -123t113.5 -46q62 0 121 38l29 -54q-78 -50 -160 -50zM126 282h260q0 73 -31.5 112t-88.5 39q-53 0 -93 -40.5t-47 -110.5zM168 587q-22 0 -36 14.5
t-14 35.5t14 35.5t36 14.5q21 0 35 -14.5t14 -35.5t-14 -35.5t-35 -14.5zM360 587q-21 0 -35 14.5t-14 35.5t14 35.5t35 14.5q22 0 36 -14.5t14 -35.5t-14 -35.5t-36 -14.5z" />
    <glyph glyph-name="uni0452" unicode="&#x452;" horiz-adv-x="548" 
d="M295 -217q-35 0 -61 13l16 62q22 -8 40 -8q28 0 49 14.5t39 48t27 96.5t9 153q0 124 -29.5 174.5t-91.5 50.5q-33 0 -62.5 -17t-66.5 -55v-315h-82v571h-74v43l74 5v93h82v-93h182v-48h-182v-93l-4 -97q80 78 159 78q180 0 180 -288q0 -111 -14 -187.5t-41.5 -120
t-63.5 -62t-85 -18.5z" />
    <glyph glyph-name="uni0453" unicode="&#x453;" horiz-adv-x="411" 
d="M82 0v486h303v-67h-221v-419h-82zM233 574l-42 41l141 167l58 -55z" />
    <glyph glyph-name="uni0454" unicode="&#x454;" horiz-adv-x="456" 
d="M274 -12q-102 0 -165 65.5t-63 188.5t66.5 189.5t166.5 66.5q80 0 143 -57l-39 -52q-51 44 -104 44q-61 0 -101.5 -39t-50.5 -112h226v-59h-228q4 -83 45.5 -126t110.5 -43q62 0 117 48l33 -52q-70 -62 -157 -62z" />
    <glyph glyph-name="uni0455" unicode="&#x455;" horiz-adv-x="419" 
d="M209 -12q-100 0 -181 67l41 55q72 -58 143 -58q46 0 71 21.5t25 54.5q0 18 -9 32t-28 25.5t-33 18t-41 16.5q-32 11 -53 21t-44.5 27t-35.5 40t-12 52q0 60 45 99t122 39q83 0 151 -55l-39 -52q-57 43 -111 43q-43 0 -66 -20t-23 -50q0 -20 16.5 -36.5t31 -23.5t50.5 -20
q7 -3 10 -4q28 -11 43 -17t38.5 -19.5t35.5 -27t21.5 -35t9.5 -48.5q0 -62 -47.5 -103.5t-130.5 -41.5z" />
    <glyph glyph-name="uni0456" unicode="&#x456;" horiz-adv-x="246" 
d="M82 0v486h82v-486h-82zM124 586q-24 0 -40.5 15t-16.5 38q0 24 16.5 38.5t40.5 14.5t40.5 -14.5t16.5 -38.5q0 -23 -16.5 -38t-40.5 -15z" />
    <glyph glyph-name="uni0457" unicode="&#x457;" horiz-adv-x="246" 
d="M82 0v486h82v-486h-82zM27 587q-22 0 -36 14.5t-14 35.5t14 35.5t36 14.5q21 0 35 -14.5t14 -35.5t-14 -35.5t-35 -14.5zM219 587q-21 0 -35 14.5t-14 35.5t14 35.5t35 14.5q22 0 36 -14.5t14 -35.5t-14 -35.5t-36 -14.5z" />
    <glyph glyph-name="uni0458" unicode="&#x458;" horiz-adv-x="247" 
d="M32 -217q-40 0 -72 13l17 62q24 -8 46 -8q34 0 47 23.5t13 71.5v541h82v-541q0 -162 -133 -162zM125 586q-24 0 -40.5 15t-16.5 38q0 24 16.5 38.5t40.5 14.5t40 -14.5t16 -38.5q0 -23 -16 -38t-40 -15z" />
    <glyph glyph-name="uni0459" unicode="&#x459;" horiz-adv-x="735" 
d="M56 -12q-23 0 -44 8l15 76q14 -4 22 -4q52 0 69 103q17 112 26 315h292v-179h64q90 0 141.5 -37.5t51.5 -114.5q0 -78 -51.5 -116.5t-141.5 -38.5h-147v419h-137q-14 -201 -27 -281q-12 -75 -47 -112.5t-86 -37.5zM436 66h55q122 0 122 89q0 88 -122 88h-55v-177z" />
    <glyph glyph-name="uni045A" unicode="&#x45a;" horiz-adv-x="758" 
d="M82 0v486h82v-197h213v197h82v-179h64q91 0 142.5 -37.5t51.5 -114.5q0 -78 -51.5 -116.5t-142.5 -38.5h-146v216h-213v-216h-82zM459 66h56q121 0 121 89q0 88 -121 88h-56v-177z" />
    <glyph glyph-name="uni045B" unicode="&#x45b;" horiz-adv-x="544" 
d="M82 0v571h-74v43l74 5v93h82v-93h182v-48h-182v-93l-3 -100q85 81 162 81q148 0 148 -190v-269h-82v258q0 68 -22 98.5t-70 30.5q-35 0 -64 -17t-69 -57v-313h-82z" />
    <glyph glyph-name="uni045C" unicode="&#x45c;" horiz-adv-x="498" 
d="M82 0v486h82v-200h94l48 108q26 60 55.5 82t72.5 22q16 0 28 -5l-14 -77q-6 2 -16 2q-22 0 -38 -13t-33 -53l-41 -96l165 -256h-90l-135 219h-96v-219h-82zM263 574l-42 41l141 167l58 -55z" />
    <glyph glyph-name="uni045D" unicode="&#x45d;" horiz-adv-x="565" 
d="M82 0v486h80v-202q0 -55 -8 -179h4q6 11 30 49t34 55l184 277h77v-486h-80v202q0 54 8 180h-4q-8 -13 -31.5 -50.5t-32.5 -53.5l-185 -278h-76zM299 574l-157 153l58 55l141 -167z" />
    <glyph glyph-name="uni045E" unicode="&#x45e;" horiz-adv-x="467" 
d="M90 -209q-30 0 -57 10l16 65q23 -7 37 -7q75 0 110 104l11 36l-195 487h85l99 -269q20 -56 47 -137h4q8 26 23 76t18 61l87 269h80l-183 -526q-28 -80 -70.5 -124.5t-111.5 -44.5zM243 572q-78 0 -116 43.5t-41 109.5h68q4 -105 89 -105t89 105h68q-3 -66 -41 -109.5
t-116 -43.5z" />
    <glyph glyph-name="uni045F" unicode="&#x45f;" horiz-adv-x="558" 
d="M82 0v486h82v-419h230v419h82v-486h-154l-9 -172h-70l-3 172h-158z" />
    <glyph glyph-name="uni0462" unicode="&#x462;" horiz-adv-x="614" 
d="M166 0v507h-138v68h138v125h84v-125h234v-68h-234v-136h78q242 0 242 -173q0 -198 -236 -198h-168zM250 66h74q84 0 124 30t40 98q0 61 -41 88t-130 27h-67v-243z" />
    <glyph glyph-name="uni0463" unicode="&#x463;" horiz-adv-x="576" 
d="M178 0v439h-152v67h152v116h82v-116h188v-67h-188v-132h81q91 0 142 -37.5t51 -114.5q0 -78 -51 -116.5t-142 -38.5h-163zM260 66h72q122 0 122 89q0 88 -122 88h-72v-177z" />
    <glyph glyph-name="uni0472" unicode="&#x472;" horiz-adv-x="664" 
d="M332 -12q-126 0 -203 91t-77 252q0 160 76.5 248.5t203.5 88.5t204 -89t77 -248q0 -161 -77.5 -252t-203.5 -91zM332 598q-82 0 -134 -57.5t-62 -161.5h392q-10 104 -62 161.5t-134 57.5zM332 58q87 0 140 66t58 187h-396q5 -121 58 -187t140 -66z" />
    <glyph glyph-name="uni0473" unicode="&#x473;" horiz-adv-x="542" 
d="M271 -12q-96 0 -160.5 67t-64.5 187q0 121 64.5 188.5t160.5 67.5t160.5 -67.5t64.5 -188.5q0 -120 -64.5 -187t-160.5 -67zM271 434q-58 0 -97 -40.5t-48 -111.5h291q-9 72 -48 112t-98 40zM271 53q63 0 103 45t44 125h-293q4 -79 44 -124.5t102 -45.5z" />
    <glyph glyph-name="uni0474" unicode="&#x474;" horiz-adv-x="529" 
d="M210 0l-210 656h89l105 -354l64 -217h4q9 33 27 104t30 113l64 227q20 74 49.5 106.5t80.5 32.5q27 0 48 -9l-17 -77q-14 6 -26 6q-21 0 -34 -17.5t-25 -56.5l-147 -514h-102z" />
    <glyph glyph-name="uni0475" unicode="&#x475;" horiz-adv-x="477" 
d="M187 0l-175 486h85l92 -276q5 -18 46 -143h4q31 120 38 143l48 148q21 75 48.5 107.5t76.5 32.5q24 0 48 -9l-16 -74q-11 6 -25 6q-21 0 -34 -17t-26 -56l-109 -348h-101z" />
    <glyph glyph-name="uni0490" unicode="&#x490;" horiz-adv-x="498" 
d="M90 0v656h301l15 172h71l-9 -242h-295v-586h-83z" />
    <glyph glyph-name="uni0491" unicode="&#x491;" horiz-adv-x="416" 
d="M82 0v486h234l16 172h67l-9 -239h-226v-419h-82z" />
    <glyph glyph-name="uni0492" unicode="&#x492;" horiz-adv-x="521" 
d="M33 307v44l79 3v302h378v-70h-295v-232h149v-47h-149v-307h-83v307h-79z" />
    <glyph glyph-name="uni0493" unicode="&#x493;" horiz-adv-x="424" 
d="M30 213v42l66 5v226h303v-67h-221v-159h133v-47h-133v-213h-82v213h-66z" />
    <glyph glyph-name="uni0496" unicode="&#x496;" horiz-adv-x="847" 
d="M739 -188v188h-32l-170 311h-95v-311h-79v311h-95l-170 -311h-92l200 350l-69 155q-24 51 -42.5 67t-43.5 16q-13 0 -24 -4l-14 78q15 6 36 6q47 0 80.5 -25.5t67.5 -96.5l77 -167h89v277h79v-277h88l78 167q34 71 67.5 96.5t80.5 25.5q21 0 36 -6l-14 -78q-12 4 -24 4
q-25 0 -43.5 -16t-42.5 -67l-69 -155l159 -279h63v-50l-9 -209h-73z" />
    <glyph glyph-name="uni0497" unicode="&#x497;" horiz-adv-x="718" 
d="M620 -172v172h-41l-122 219h-80v-219h-73v219h-80l-122 -219h-89l153 256l-39 96q-16 39 -32 52.5t-38 13.5q-10 0 -16 -2l-15 77q13 5 29 5q42 0 73 -23t55 -81l46 -108h75v200h73v-200h75l46 108q24 58 55 81t73 23q16 0 28 -5l-14 -77q-6 2 -16 2q-22 0 -38.5 -13.5
t-32.5 -52.5l-38 -96l113 -189h71v-52l-8 -187h-71z" />
    <glyph glyph-name="uni0498" unicode="&#x498;" horiz-adv-x="554" 
d="M241 -188v178q-117 9 -199 94l47 57q43 -43 87 -61.5t101 -18.5q66 0 110.5 34.5t44.5 94.5q0 123 -177 123h-74v64h54q163 0 163 113q0 50 -35.5 77.5t-92.5 27.5q-88 0 -154 -61l-45 56q80 78 201 78q94 0 151 -45t57 -123q0 -52 -25.5 -91.5t-72.5 -56.5v-4
q59 -12 95.5 -54.5t36.5 -107.5q0 -81 -53.5 -132.5t-138.5 -62.5l-8 -179h-73z" />
    <glyph glyph-name="uni0499" unicode="&#x499;" horiz-adv-x="456" 
d="M186 -172l-4 162q-82 8 -145 60l35 53q60 -49 142 -49q51 0 86 24t35 63q0 82 -124 82h-67v59h55q117 0 117 77q0 36 -27.5 55t-73.5 19q-72 0 -132 -43l-35 54q77 54 171 54q76 0 126.5 -33.5t50.5 -97.5q0 -35 -21.5 -64t-58.5 -44v-4q101 -27 101 -121
q0 -57 -43.5 -95t-110.5 -48l-9 -163h-68z" />
    <glyph glyph-name="uni049A" unicode="&#x49a;" horiz-adv-x="628" 
d="M520 -188v188h-33l-202 311h-112v-311h-83v656h83v-277h113l92 167q40 72 71 97t77 25q21 0 36 -6l-14 -78q-11 4 -24 4q-22 0 -39.5 -16t-45.5 -67l-87 -155l180 -279h70v-50l-9 -209h-73z" />
    <glyph glyph-name="uni049B" unicode="&#x49b;" horiz-adv-x="536" 
d="M438 -172v172h-43l-135 219h-96v-219h-82v486h82v-200h94l48 108q26 60 55.5 82t72.5 22q16 0 28 -5l-14 -77q-6 2 -16 2q-22 0 -38 -13t-33 -53l-41 -96l122 -189h75v-52l-9 -187h-70z" />
    <glyph glyph-name="uni04A0" unicode="&#x4a0;" horiz-adv-x="716" 
d="M226 0v586h-198v70h282v-277h113l92 167q39 72 70.5 97t77.5 25q21 0 36 -6l-14 -78q-12 4 -24 4q-23 0 -40 -16t-46 -67l-86 -155l225 -350h-90l-202 311h-112v-311h-84z" />
    <glyph glyph-name="uni04A1" unicode="&#x4a1;" horiz-adv-x="614" 
d="M198 0v419h-172v67h254v-200h94l48 108q26 61 55 82.5t72 21.5q16 0 29 -5l-15 -77q-6 2 -16 2q-21 0 -37 -13t-33 -53l-41 -97l165 -255h-91l-135 219h-95v-219h-82z" />
    <glyph glyph-name="uni04A2" unicode="&#x4a2;" horiz-adv-x="661" 
d="M553 -188v188h-75v309h-305v-309h-83v656h83v-275h305v275h84v-585h73v-50l-9 -209h-73z" />
    <glyph glyph-name="uni04A3" unicode="&#x4a3;" horiz-adv-x="570" 
d="M471 -172v172h-72v216h-234v-216h-82v486h82v-197h234v197h82v-419h70v-52l-9 -187h-71z" />
    <glyph glyph-name="uni04AA" unicode="&#x4aa;" horiz-adv-x="571" 
d="M299 -188v178q-111 15 -179 104.5t-68 233.5q0 155 81.5 247.5t209.5 92.5q108 0 180 -81l-45 -54q-59 62 -134 62q-93 0 -149.5 -71.5t-56.5 -193.5q0 -124 55 -196.5t148 -72.5q84 0 152 74l46 -52q-67 -78 -159 -92l-8 -179h-73z" />
    <glyph glyph-name="uni04AB" unicode="&#x4ab;" horiz-adv-x="456" 
d="M234 -172l-4 164q-83 15 -133.5 80.5t-50.5 169.5q0 118 68 187t166 69q79 0 142 -57l-42 -54q-48 43 -97 43q-66 0 -109 -52.5t-43 -135.5t41.5 -134.5t108.5 -51.5q60 0 114 49l36 -55q-53 -47 -120 -59l-9 -163h-68z" />
    <glyph glyph-name="uni04AE" unicode="&#x4ae;" horiz-adv-x="476" 
d="M196 0v254l-197 402h89l85 -185q46 -105 63 -143h4q57 122 66 143l84 185h87l-197 -402v-254h-84z" />
    <glyph glyph-name="uni04AF" unicode="&#x4af;" horiz-adv-x="467" 
d="M195 -205v205l-183 486h85l91 -265q7 -24 46 -141h4q5 15 21 64.5t24 76.5l91 265h81l-178 -486v-205h-82z" />
    <glyph glyph-name="uni04B0" unicode="&#x4b0;" horiz-adv-x="476" 
d="M57 243v44l88 3h33l-179 366h89l85 -185q46 -105 63 -143h4q57 122 66 143l84 185h87l-179 -366h121v-47h-139v-243h-84v243h-139z" />
    <glyph glyph-name="uni04B1" unicode="&#x4b1;" horiz-adv-x="467" 
d="M195 -205v205h-148v42l78 5h52l-165 439h85l91 -265q7 -24 46 -141h4q5 15 21 64.5t24 76.5l91 265h81l-161 -439h125v-47h-142v-205h-82z" />
    <glyph glyph-name="uni04B2" unicode="&#x4b2;" horiz-adv-x="551" 
d="M445 -188v188h-39l-96 177q-5 9 -24.5 45.5t-31.5 59.5h-4q-10 -20 -52 -105l-95 -177h-88l191 339l-178 317h92l89 -168q14 -25 51 -95h4q29 61 47 95l87 168h88l-179 -321l151 -264h68v-50l-9 -209h-72z" />
    <glyph glyph-name="uni04B3" unicode="&#x4b3;" horiz-adv-x="482" 
d="M384 -172v172h-41l-71 113q-30 52 -53 87h-4q-21 -35 -49 -87l-66 -113h-86l159 254l-147 232h89l65 -107q33 -57 48 -81h4q24 47 44 81l59 107h86l-147 -241l115 -178h73v-52l-8 -187h-70z" />
    <glyph glyph-name="uni04B6" unicode="&#x4b6;" horiz-adv-x="607" 
d="M501 -188v188h-76v294q-53 -10 -120 -10q-116 0 -177 50t-61 164v158h82v-158q0 -79 40.5 -112t123.5 -33q67 0 112 10v293h83v-585h73v-50l-9 -209h-71z" />
    <glyph glyph-name="uni04B7" unicode="&#x4b7;" horiz-adv-x="520" 
d="M422 -172v172h-74v194q-49 -10 -95 -10q-194 0 -194 169v133h82v-133q0 -54 30.5 -78t97.5 -24q37 0 79 9v226h82v-419h71v-52l-9 -187h-70z" />
    <glyph glyph-name="uni04BA" unicode="&#x4ba;" horiz-adv-x="598" 
d="M90 0v656h83v-258q64 10 119 10q117 0 178 -50t61 -164v-194h-82v194q0 80 -40.5 112.5t-124.5 32.5q-57 0 -111 -10v-329h-83z" />
    <glyph glyph-name="uni04BB" unicode="&#x4bb;" horiz-adv-x="544" 
d="M82 0v712h82v-194l-3 -100q84 80 162 80q148 0 148 -190v-308h-82v297q0 68 -22 99t-70 31q-35 0 -64 -17.5t-69 -57.5v-352h-82z" />
    <glyph glyph-name="uni04C0" unicode="&#x4c0;" horiz-adv-x="263" 
d="M90 0v656h83v-656h-83z" />
    <glyph glyph-name="uni04C1" unicode="&#x4c1;" horiz-adv-x="805" 
d="M6 0l200 350l-69 155q-24 51 -42.5 67t-43.5 16q-13 0 -24 -4l-14 78q15 6 36 6q47 0 80.5 -25.5t67.5 -96.5l77 -167h89v277h79v-277h88l78 167q34 71 67.5 96.5t80.5 25.5q21 0 36 -6l-14 -78q-12 4 -24 4q-25 0 -43.5 -16t-42.5 -67l-69 -155l199 -350h-91l-170 311
h-95v-311h-79v311h-95l-170 -311h-92zM402 705q-77 0 -112.5 37.5t-38.5 94.5h72q4 -86 79 -86t79 86h72q-3 -57 -38.5 -94.5t-112.5 -37.5z" />
    <glyph glyph-name="uni04C2" unicode="&#x4c2;" horiz-adv-x="681" 
d="M13 0l153 256l-39 96q-16 39 -32 52.5t-38 13.5q-10 0 -16 -2l-15 77q13 5 29 5q42 0 73 -23t55 -81l46 -108h75v200h73v-200h75l46 108q24 58 55 81t73 23q16 0 28 -5l-14 -77q-6 2 -16 2q-22 0 -38.5 -13.5t-32.5 -52.5l-38 -96l153 -256h-89l-122 219h-80v-219h-73
v219h-80l-122 -219h-89zM341 572q-78 0 -116 43.5t-41 109.5h68q4 -105 89 -105t89 105h68q-3 -66 -41 -109.5t-116 -43.5z" />
    <glyph glyph-name="uni04CF" unicode="&#x4cf;" horiz-adv-x="255" 
d="M169 -12q-87 0 -87 110v614h82v-620q0 -36 23 -36q9 0 18 2l11 -62q-18 -8 -47 -8z" />
    <glyph glyph-name="uni04D0" unicode="&#x4d0;" horiz-adv-x="544" 
d="M203 367l-31 -100h197l-31 100q-31 94 -66 221h-4q-31 -117 -65 -221zM3 0l222 656h94l222 -656h-89l-62 200h-239l-63 -200h-85zM272 705q-77 0 -112.5 37.5t-38.5 94.5h72q4 -86 79 -86t79 86h72q-3 -57 -38.5 -94.5t-112.5 -37.5z" />
    <glyph glyph-name="uni04D1" unicode="&#x4d1;" horiz-adv-x="504" 
d="M194 -12q-62 0 -102 37t-40 101q0 79 71 122t227 60q0 122 -100 122q-69 0 -145 -52l-32 57q98 63 191 63q86 0 127.5 -52.5t41.5 -147.5v-298h-68l-7 58h-3q-85 -70 -161 -70zM218 54q59 0 132 65v135q-118 -15 -168 -44.5t-50 -77.5q0 -39 24 -58.5t62 -19.5zM263 572
q-78 0 -116 43.5t-41 109.5h68q4 -105 89 -105t89 105h68q-3 -66 -41 -109.5t-116 -43.5z" />
    <glyph glyph-name="uni04D4" unicode="&#x4d4;" horiz-adv-x="822" 
d="M290 376l-61 -118h172v332h-4q-53 -107 -107 -214zM8 0l344 656h411v-70h-278v-206h232v-71h-232v-238h288v-71h-372v191h-206l-99 -191h-88z" />
    <glyph glyph-name="uni04D5" unicode="&#x4d5;" horiz-adv-x="785" 
d="M201 -12q-63 0 -103 37t-40 101q0 79 70.5 122t223.5 60q0 122 -99 122q-65 0 -141 -52l-33 57q98 63 184 63q106 0 139 -103q62 103 160 103q88 0 136.5 -61.5t48.5 -167.5q0 -28 -3 -46h-315q3 -75 45.5 -121.5t105.5 -46.5q55 0 118 40l30 -57q-78 -50 -158 -50
q-101 0 -171 91q-102 -91 -198 -91zM224 54q35 0 75 20t72 55q-17 39 -19 100v25q-113 -15 -163 -44.5t-50 -77.5q0 -39 23.5 -58.5t61.5 -19.5zM429 278h246q0 75 -29.5 115t-85.5 40q-51 0 -87.5 -42.5t-43.5 -112.5z" />
    <glyph glyph-name="uni04D6" unicode="&#x4d6;" horiz-adv-x="527" 
d="M90 0v656h378v-70h-295v-206h249v-71h-249v-238h305v-71h-388zM284 705q-77 0 -112.5 37.5t-38.5 94.5h72q4 -86 79 -86t79 86h72q-3 -57 -38.5 -94.5t-112.5 -37.5z" />
    <glyph glyph-name="uni04D7" unicode="&#x4d7;" horiz-adv-x="496" 
d="M279 -12q-100 0 -166.5 69t-66.5 185q0 114 65 185t153 71q92 0 143 -61.5t51 -166.5q0 -29 -3 -47h-328q5 -77 48.5 -123t113.5 -46q62 0 121 38l29 -54q-78 -50 -160 -50zM126 282h260q0 73 -31.5 112t-88.5 39q-53 0 -93 -40.5t-47 -110.5zM264 572q-78 0 -116 43.5
t-41 109.5h68q4 -105 89 -105t89 105h68q-3 -66 -41 -109.5t-116 -43.5z" />
    <glyph glyph-name="uni04D8" unicode="&#x4d8;" horiz-adv-x="658" 
d="M327 -12q-126 0 -197.5 90.5t-71.5 246.5q0 7 2 25h464q-5 121 -55.5 185t-143.5 64t-160 -65l-41 57q80 77 207 77q129 0 202 -88t73 -250t-75 -252t-204 -90zM327 57q84 0 135.5 59t59.5 170h-379q4 -108 54 -168.5t130 -60.5z" />
    <glyph glyph-name="uni04D9" unicode="&#x4d9;" horiz-adv-x="496" 
d="M238 -12q-93 0 -147 63t-54 171q0 24 4 48h327q-4 74 -42 118.5t-103 44.5q-62 0 -126 -42l-29 57q73 50 168 50q94 0 154 -68.5t60 -185.5q0 -116 -60.5 -186t-151.5 -70zM236 54q56 0 91 41t42 116h-259q0 -77 33.5 -117t92.5 -40z" />
    <glyph glyph-name="uni04E2" unicode="&#x4e2;" horiz-adv-x="656" 
d="M90 0v656h82v-339q0 -44 -10 -209h4l71 134l241 414h88v-656h-82v343q0 40 10 205h-4l-71 -134l-241 -414h-88zM198 739v57h268v-57h-268z" />
    <glyph glyph-name="uni04E3" unicode="&#x4e3;" horiz-adv-x="565" 
d="M82 0v486h80v-202q0 -55 -8 -179h4q6 11 30 49t34 55l184 277h77v-486h-80v202q0 54 8 180h-4q-8 -13 -31.5 -50.5t-32.5 -53.5l-185 -278h-76zM152 602v57h266v-57h-266z" />
    <glyph glyph-name="uni04E6" unicode="&#x4e6;" horiz-adv-x="664" 
d="M332 -12q-125 0 -202.5 93t-77.5 250q0 155 77.5 246t202.5 91t203 -91t78 -246q0 -157 -78 -250t-203 -93zM332 61q88 0 141 73.5t53 196.5q0 122 -53 193t-141 71t-141 -71t-53 -193q0 -123 53 -196.5t141 -73.5zM229 715q-21 0 -35 14t-14 35q0 22 14 35.5t35 13.5
q22 0 35.5 -13.5t13.5 -35.5q0 -21 -13.5 -35t-35.5 -14zM435 715q-22 0 -35.5 14t-13.5 35q0 22 13.5 35.5t35.5 13.5q21 0 35 -13.5t14 -35.5q0 -21 -14 -35t-35 -14z" />
    <glyph glyph-name="uni04E7" unicode="&#x4e7;" horiz-adv-x="542" 
d="M271 -12q-94 0 -159.5 69t-65.5 185q0 118 65.5 187t159.5 69t159.5 -69t65.5 -187q0 -116 -65.5 -185t-159.5 -69zM271 56q63 0 101.5 51.5t38.5 134.5q0 84 -38.5 136t-101.5 52q-62 0 -101 -52t-39 -136q0 -83 39 -134.5t101 -51.5zM175 587q-22 0 -36 14.5t-14 35.5
t14 35.5t36 14.5q21 0 35 -14.5t14 -35.5t-14 -35.5t-35 -14.5zM367 587q-21 0 -35 14.5t-14 35.5t14 35.5t35 14.5q22 0 36 -14.5t14 -35.5t-14 -35.5t-36 -14.5z" />
    <glyph glyph-name="uni04E8" unicode="&#x4e8;" horiz-adv-x="664" 
d="M332 -12q-126 0 -203 91t-77 252q0 160 76.5 248.5t203.5 88.5t204 -89t77 -248q0 -161 -77.5 -252t-203.5 -91zM332 598q-82 0 -134 -57.5t-62 -161.5h392q-10 104 -62 161.5t-134 57.5zM332 58q87 0 140 66t58 187h-396q5 -121 58 -187t140 -66z" />
    <glyph glyph-name="uni04E9" unicode="&#x4e9;" horiz-adv-x="542" 
d="M271 -12q-96 0 -160.5 67t-64.5 187q0 121 64.5 188.5t160.5 67.5t160.5 -67.5t64.5 -188.5q0 -120 -64.5 -187t-160.5 -67zM271 434q-58 0 -97 -40.5t-48 -111.5h291q-9 72 -48 112t-98 40zM271 53q63 0 103 45t44 125h-293q4 -79 44 -124.5t102 -45.5z" />
    <glyph glyph-name="uni04EE" unicode="&#x4ee;" horiz-adv-x="514" 
d="M136 -12q-39 0 -65 10l17 75q19 -7 42 -7q59 0 85 53l14 35l-224 502h89l122 -292l50 -129h4l46 129l113 292h85l-215 -537q-53 -131 -163 -131zM118 735v57h268v-57h-268z" />
    <glyph glyph-name="uni04EF" unicode="&#x4ef;" horiz-adv-x="467" 
d="M90 -209q-30 0 -57 10l16 65q23 -7 37 -7q75 0 110 104l11 36l-195 487h85l99 -269q20 -56 47 -137h4q8 26 23 76t18 61l87 269h80l-183 -526q-28 -80 -70.5 -124.5t-111.5 -44.5zM110 601v57h266v-57h-266z" />
    <glyph glyph-name="uni04F2" unicode="&#x4f2;" horiz-adv-x="514" 
d="M136 -12q-39 0 -65 10l17 75q19 -7 42 -7q59 0 85 53l14 35l-224 502h89l122 -292l50 -129h4l46 129l113 292h85l-215 -537q-53 -131 -163 -131zM150 724l92 152l56 -32l-105 -141zM310 724l92 152l56 -32l-105 -141z" />
    <glyph glyph-name="uni04F3" unicode="&#x4f3;" horiz-adv-x="467" 
d="M90 -209q-30 0 -57 10l16 65q23 -7 37 -7q75 0 110 104l11 36l-195 487h85l99 -269q20 -56 47 -137h4q8 26 23 76t18 61l87 269h80l-183 -526q-28 -80 -70.5 -124.5t-111.5 -44.5zM192 568l-45 21l86 172l59 -28zM343 568l-46 21l87 172l58 -28z" />
    <glyph glyph-name="a.sups" unicode="&#x1d43;" horiz-adv-x="345" 
d="M136 387q-44 0 -71.5 25.5t-27.5 68.5q0 52 47.5 80t151.5 39q-2 73 -62 73q-47 0 -101 -34l-23 43q69 42 133 42q115 0 115 -133v-196h-50l-7 37h-4q-51 -45 -101 -45zM154 436q39 0 82 40v85q-138 -15 -138 -75q0 -50 56 -50z" />
    <glyph glyph-name="b.sups" unicode="&#x1d47;" horiz-adv-x="374" 
d="M201 387q-49 0 -91 40h-4l-6 -32h-48v468h62v-126l-3 -58q54 45 100 45q62 0 96 -44t34 -119q0 -79 -41 -126.5t-99 -47.5zM192 438q37 0 61 32.5t24 90.5q0 112 -81 112q-39 0 -82 -43v-161q37 -31 78 -31z" />
    <glyph glyph-name="d.sups" unicode="&#x1d48;" horiz-adv-x="374" 
d="M170 387q-64 0 -100.5 45.5t-36.5 128.5q0 73 41.5 118t98.5 45q46 0 90 -36l-3 56v119h62v-468h-50l-7 35h-3q-47 -43 -92 -43zM184 438q35 0 76 41v162q-38 32 -77 32q-36 0 -61 -31t-25 -81q0 -123 87 -123z" />
    <glyph glyph-name="e.sups" unicode="&#x1d49;" horiz-adv-x="336" 
d="M186 387q-68 0 -113 44.5t-45 123.5q0 76 43.5 122.5t106.5 46.5q68 0 100 -45t32 -103q0 -15 -4 -35h-217q3 -49 31 -77t73 -28t82 26l24 -40q-54 -35 -113 -35zM88 582h167q0 38 -18.5 65.5t-58.5 27.5q-36 0 -60 -24.5t-30 -68.5z" />
    <glyph glyph-name="g.sups" unicode="&#x1d4d;" horiz-adv-x="343" 
d="M164 248q-61 0 -97.5 22.5t-36.5 63.5q0 42 46 70v4q-29 19 -29 53t36 58v4q-43 33 -43 86q0 52 36.5 83.5t89.5 31.5q29 0 51 -9h110v-48h-62q23 -23 23 -60q0 -51 -35 -81.5t-87 -30.5q-28 0 -48 10q-19 -14 -19 -34q0 -32 56 -32h62q59 0 87 -18.5t28 -60.5
q0 -47 -46 -79.5t-122 -32.5zM166 537q28 0 47 20t19 52t-19 51t-47 19q-30 0 -48.5 -18.5t-18.5 -51.5t18.5 -52.5t48.5 -19.5zM174 291q42 0 70 18t28 42q0 36 -63 36h-53q-28 0 -42 4q-31 -22 -31 -48q0 -25 24 -38.5t67 -13.5z" />
    <glyph glyph-name="k.sups" unicode="&#x1d4f;" horiz-adv-x="337" 
d="M52 395v468h62v-307h4l131 160h69l-112 -131l126 -190h-69l-93 148l-56 -67v-81h-62z" />
    <glyph glyph-name="m.sups" unicode="&#x1d50;" horiz-adv-x="559" 
d="M52 395v321h50l5 -45h4q49 53 101 53q68 0 90 -60q56 60 108 60q101 0 101 -126v-203h-62v194q0 41 -13 61.5t-46 20.5q-34 0 -78 -47v-229h-62v194q0 41 -13 61.5t-46 20.5t-77 -47v-229h-62z" />
    <glyph glyph-name="o.sups" unicode="&#x1d52;" horiz-adv-x="365" 
d="M182 387q-65 0 -108.5 45.5t-43.5 122.5q0 78 43.5 123.5t108.5 45.5q64 0 108 -45.5t44 -123.5q0 -77 -44 -122.5t-108 -45.5zM182 438q41 0 64.5 32.5t23.5 84.5q0 54 -23.5 86t-64.5 32t-65 -32t-24 -86q0 -52 24 -84.5t65 -32.5z" />
    <glyph glyph-name="p.sups" unicode="&#x1d56;" horiz-adv-x="374" 
d="M52 257v459h49l7 -37h3q49 45 100 45q62 0 96 -44t34 -119q0 -79 -41 -126.5t-99 -47.5q-49 0 -91 37l4 -63v-104h-62zM192 438q37 0 61 32.5t24 90.5q0 112 -81 112q-39 0 -82 -43v-161q37 -31 78 -31z" />
    <glyph glyph-name="t.sups" unicode="&#x1d57;" horiz-adv-x="232" 
d="M160 387q-96 0 -96 112v167h-48v48l50 2l8 91h52v-91h88v-50h-88v-167q0 -62 49 -62q21 0 37 8l13 -46q-36 -12 -65 -12z" />
    <glyph glyph-name="u.sups" unicode="&#x1d58;" horiz-adv-x="370" 
d="M153 387q-103 0 -103 125v204h62v-195q0 -42 13 -61.5t48 -19.5q40 0 84 47v229h62v-321h-49l-7 45h-3q-49 -53 -107 -53z" />
    <glyph glyph-name="v.sups" unicode="&#x1d5b;" horiz-adv-x="321" 
d="M124 395l-116 321h62l58 -176l31 -96h4l31 96l58 176h61l-116 -321h-73z" />
    <glyph glyph-name="c.sups" unicode="&#x1d9c;" horiz-adv-x="306" 
d="M184 387q-68 0 -111 44.5t-43 123.5q0 77 45.5 123t110.5 46q58 0 99 -35l-30 -40q-30 24 -65 24q-42 0 -69.5 -33t-27.5 -85t27 -84.5t70 -32.5q40 0 74 27l26 -40q-44 -38 -106 -38z" />
    <glyph glyph-name="f.sups" unicode="&#x1da0;" horiz-adv-x="201" 
d="M64 395v272h-45v47l45 2v42q0 53 25 84.5t75 31.5q32 0 56 -10l-13 -46q-18 6 -37 6q-44 0 -44 -62v-46h68v-49h-68v-272h-62z" />
    <glyph glyph-name="z.sups" unicode="&#x1dbb;" horiz-adv-x="290" 
d="M21 395v33l168 238h-148v50h226v-34l-167 -237h172v-50h-251z" />
    <glyph glyph-name="uni1E06" unicode="&#x1e06;" horiz-adv-x="588" 
d="M90 0v656h195q225 0 225 -160q0 -50 -25.5 -89t-70.5 -54v-4q62 -12 98 -52t36 -105q0 -94 -67.5 -143t-181.5 -49h-209zM173 377h97q158 0 158 108q0 56 -38 80.5t-116 24.5h-101v-213zM173 66h114q179 0 179 129q0 118 -179 118h-114v-247zM167 -170v57h266v-57h-266z
" />
    </font>
</defs>
</svg>
