<?xml version="1.0" standalone="no"?>
<!DOCTYPE svg PUBLIC "-//W3C//DTD SVG 1.1//EN" "http://www.w3.org/Graphics/SVG/1.1/DTD/svg11.dtd" >
<svg xmlns="http://www.w3.org/2000/svg" xmlns:xlink="http://www.w3.org/1999/xlink" version="1.1">
<metadata>
Created by FontForge 20161003 at Fri Jan  4 06:13:38 2019
 By www-data
Copyright 2010, 2012, 2014 Adobe Systems Incorporated (http://www.adobe.com/), with Reserved Font Name `Source'.
</metadata>
<defs>
<font id="SourceSansProSemibold" horiz-adv-x="0" >
  <font-face 
    font-family="SourceSansProSemibold"
    font-weight="600"
    font-stretch="normal"
    units-per-em="1000"
    panose-1="2 11 6 3 3 4 3 2 2 4"
    ascent="750"
    descent="-250"
    x-height="491"
    cap-height="654"
    bbox="-456 -305 2158 989"
    underline-thickness="50"
    underline-position="-150"
    unicode-range="U+0020-1F16B"
  />
<missing-glyph horiz-adv-x="672" 
d="M84 0v660h504v-660h-504zM230 75h210l-56 104l-46 100h-4l-47 -100zM334 401h4l46 94l48 89h-193l49 -89zM166 133l111 207l-111 209v-416zM505 133v416l-110 -209z" />
    <glyph glyph-name="f_f" unicode="ff" horiz-adv-x="618" 
d="M394 0v400h-186v-400h-115v400h-66v86l66 5v43q0 80 42 127t128 47q57 0 96 -18l-22 -86q-27 13 -62 13q-31 0 -49 -21.5t-18 -61.5v-43h186v51q0 81 39.5 128.5t122.5 47.5q48 0 90 -17l-22 -86q-26 12 -53 12q-62 0 -62 -83v-53h96v-91h-96v-400h-115z" />
    <glyph glyph-name="f_t" unicode="ft" horiz-adv-x="642" 
d="M93 0v400h-66v86l66 5v51q0 81 40 128.5t123 47.5q48 0 90 -17l-22 -86q-27 12 -54 12q-62 0 -62 -83v-53h169l14 134h95v-134h126v-91h-126v-234q0 -86 70 -86q25 0 51 11l20 -85q-54 -18 -101 -18q-155 0 -155 178v234h-163v-400h-115z" />
    <glyph glyph-name="f_f_t" unicode="fft" horiz-adv-x="942" 
d="M93 0v400h-66v86l66 5v43q0 80 42 127t128 47q57 0 96 -18l-22 -86q-27 13 -62 13q-31 0 -49 -21.5t-18 -61.5v-43h186v51q0 81 39.5 128.5t122.5 47.5q48 0 90 -17l-22 -86q-26 12 -53 12q-62 0 -62 -83v-53h169l14 134h95v-134h125v-91h-125v-234q0 -86 70 -86
q25 0 51 11l20 -85q-54 -18 -101 -18q-155 0 -155 178v234h-163v-400h-115v400h-186v-400h-115z" />
    <glyph glyph-name=".notdef" horiz-adv-x="672" 
d="M84 0v660h504v-660h-504zM230 75h210l-56 104l-46 100h-4l-47 -100zM334 401h4l46 94l48 89h-193l49 -89zM166 133l111 207l-111 209v-416zM505 133v416l-110 -209z" />
    <glyph glyph-name=".null" 
 />
    <glyph glyph-name="nonmarkingreturn" horiz-adv-x="333" 
 />
    <glyph glyph-name="space" unicode=" " horiz-adv-x="200" 
 />
    <glyph glyph-name="exclam" unicode="!" horiz-adv-x="315" 
d="M119 215l-16 341l-3 114h116l-4 -114l-16 -341h-77zM158 -12q-32 0 -53.5 22t-21.5 56t21.5 56t53.5 22t53 -22t21 -56t-21 -56t-53 -22z" />
    <glyph glyph-name="quotedbl" unicode="&#x22;" horiz-adv-x="482" 
d="M104 392l-22 183l-4 113h118l-3 -113l-23 -183h-66zM311 392l-22 183l-4 113h118l-3 -113l-23 -183h-66z" />
    <glyph glyph-name="numbersign" unicode="#" horiz-adv-x="513" 
d="M88 0l24 195h-77v76h85l16 129h-81v76h91l22 174h69l-21 -174h117l23 174h68l-21 -174h80v-76h-89l-16 -129h85v-76h-94l-23 -195h-70l23 195h-117l-24 -195h-70zM190 271h118l16 129h-118z" />
    <glyph glyph-name="dollar" unicode="$" horiz-adv-x="513" 
d="M218 -110v100q-102 10 -173 76l52 78q79 -62 148 -62q97 0 97 86q0 36 -28 63t-68 46.5t-80 41.5t-68 60t-28 90q0 69 40 116t108 59v102h80v-100q81 -10 145 -78l-59 -67q-58 53 -116 53q-41 0 -64 -20.5t-23 -59.5q0 -33 28 -57t68 -42.5t80 -40.5t68 -62t28 -96
q0 -72 -40.5 -121t-114.5 -62v-103h-80z" />
    <glyph glyph-name="percent" unicode="%" horiz-adv-x="841" 
d="M186 252q-70 0 -113 55.5t-43 152.5t43 151.5t113 54.5t113 -54.5t43 -151.5t-43 -152.5t-113 -55.5zM186 319q33 0 53 35t20 106q0 70 -20 104.5t-53 34.5t-53 -34.5t-20 -104.5q0 -71 20 -106t53 -35zM207 -12l357 678h70l-356 -678h-71zM655 -12q-70 0 -113 55.5
t-43 152.5t43 151.5t113 54.5t113 -54.5t43 -151.5t-43 -152.5t-113 -55.5zM655 55q33 0 53 35t20 106q0 70 -20 104.5t-53 34.5t-53 -34.5t-20 -104.5q0 -71 20 -106t53 -35z" />
    <glyph glyph-name="ampersand" unicode="&#x26;" horiz-adv-x="639" 
d="M237 -12q-95 0 -152 52.5t-57 131.5q0 62 33 105t92 82q-42 78 -42 144q0 69 46 116t119 47q66 0 105 -38t39 -101q0 -58 -36.5 -100t-105.5 -90q61 -83 149 -150q57 76 83 174h106q-37 -127 -112 -227q70 -42 118 -52l-29 -94q-81 19 -159 70q-85 -70 -197 -70zM207 504
q0 -41 26 -96q48 30 72.5 56.5t24.5 61.5q0 62 -53 62q-31 0 -50.5 -23.5t-19.5 -60.5zM251 77q51 0 105 39q-94 80 -155 165q-63 -51 -63 -102q0 -45 32 -73.5t81 -28.5z" />
    <glyph glyph-name="quotesingle" unicode="'" horiz-adv-x="275" 
d="M104 392l-22 183l-4 113h118l-3 -113l-23 -183h-66z" />
    <glyph glyph-name="parenleft" unicode="(" horiz-adv-x="324" 
d="M209 -178q-132 216 -132 456t132 456l72 -32q-110 -188 -110 -424t110 -424z" />
    <glyph glyph-name="parenright" unicode=")" horiz-adv-x="324" 
d="M115 -178l-72 32q110 188 110 424t-110 424l72 32q132 -216 132 -456t-132 -456z" />
    <glyph glyph-name="asterisk" unicode="*" horiz-adv-x="438" 
d="M143 384l-51 37l58 98l-102 45l19 60l109 -25l11 113h63l11 -113l110 25l19 -60l-103 -45l58 -98l-51 -37l-75 87z" />
    <glyph glyph-name="plus" unicode="+" horiz-adv-x="513" 
d="M213 99v189h-179v84h179v189h87v-189h179v-84h-179v-189h-87z" />
    <glyph glyph-name="comma" unicode="," horiz-adv-x="275" 
d="M72 -182l-25 63q48 19 75 51t26 70h-9q-31 0 -52.5 19.5t-21.5 51.5t22.5 51.5t54.5 19.5q40 0 63 -31t23 -87q0 -74 -41 -128t-115 -80z" />
    <glyph glyph-name="hyphen" unicode="-" horiz-adv-x="322" 
d="M42 210v84h238v-84h-238z" />
    <glyph glyph-name="period" unicode="." horiz-adv-x="275" 
d="M138 -12q-32 0 -53.5 22t-21.5 56t21.5 56t53.5 22t53 -22t21 -56t-21 -56t-53 -22z" />
    <glyph glyph-name="slash" unicode="/" horiz-adv-x="344" 
d="M12 -160l233 870h78l-233 -870h-78z" />
    <glyph glyph-name="zero" unicode="0" horiz-adv-x="513" 
d="M256 -12q-100 0 -158 87t-58 246t57.5 243t158.5 84t158.5 -84.5t57.5 -242.5q0 -159 -58 -246t-158 -87zM256 78q106 0 106 243q0 237 -106 237t-106 -237q0 -243 106 -243z" />
    <glyph glyph-name="one" unicode="1" horiz-adv-x="513" 
d="M74 0v94h142v418h-117v72q88 17 147 52h86v-542h125v-94h-383z" />
    <glyph glyph-name="two" unicode="2" horiz-adv-x="513" 
d="M38 0v67q156 151 222 232t66 148q0 51 -27.5 80.5t-77.5 29.5q-60 0 -124 -71l-64 64q46 49 93.5 73.5t109.5 24.5q91 0 146 -53t55 -142q0 -41 -16.5 -83.5t-53.5 -92t-70 -87.5t-91 -99q77 7 106 7h156v-98h-430z" />
    <glyph glyph-name="three" unicode="3" horiz-adv-x="513" 
d="M240 -12q-135 0 -216 90l55 74q68 -70 151 -70q52 0 84.5 26t32.5 70q0 53 -42 80.5t-145 27.5v84q166 0 166 102q0 40 -25 62.5t-69 22.5q-63 0 -128 -60l-59 71q90 80 191 80q93 0 149.5 -44.5t56.5 -123.5q0 -103 -111 -146v-4q59 -16 95.5 -56.5t36.5 -101.5
q0 -84 -64 -134t-159 -50z" />
    <glyph glyph-name="four" unicode="4" horiz-adv-x="513" 
d="M299 0v164h-281v78l252 394h137v-383h80v-89h-80v-164h-108zM132 253h167v144q0 39 5 132h-4q-4 -9 -52 -99z" />
    <glyph glyph-name="five" unicode="5" horiz-adv-x="513" 
d="M241 -12q-129 0 -217 88l53 74q72 -68 149 -68q54 0 88.5 32.5t34.5 89.5q0 56 -32 87.5t-85 31.5q-29 0 -50 -8t-52 -28l-55 35l19 314h340v-97h-240l-13 -154q44 21 84 21q87 0 143.5 -50.5t56.5 -148.5q0 -100 -66 -159.5t-158 -59.5z" />
    <glyph glyph-name="six" unicode="6" horiz-adv-x="513" 
d="M275 -12q-100 0 -165.5 79t-65.5 232q0 174 71.5 261.5t178.5 87.5q102 0 170 -72l-62 -70q-17 21 -45 34.5t-56 13.5q-143 0 -150 -235q27 35 65 55t73 20q85 0 135.5 -50t50.5 -147q0 -93 -58 -151t-142 -58zM273 76q41 0 68 32t27 89q0 56 -26 84.5t-74 28.5
q-64 0 -114 -73q17 -161 119 -161z" />
    <glyph glyph-name="seven" unicode="7" horiz-adv-x="513" 
d="M168 0q8 172 47 292.5t130 246.5h-301v97h427v-70q-106 -132 -141.5 -249t-44.5 -317h-117z" />
    <glyph glyph-name="eight" unicode="8" horiz-adv-x="513" 
d="M257 -12q-94 0 -155 49t-61 126q0 102 115 163v4q-88 63 -88 149q0 76 54 122.5t138 46.5q85 0 136 -47t51 -125q0 -44 -25 -82t-60 -64v-4q110 -62 110 -165q0 -75 -60 -124t-155 -49zM299 359q53 53 53 110q0 43 -25.5 70t-68.5 27q-38 0 -62.5 -23.5t-24.5 -63.5
q0 -44 32 -69.5t96 -50.5zM259 70q47 0 76 25.5t29 69.5q0 20 -9 37t-18.5 27.5t-35.5 24.5t-39.5 19.5t-50.5 20.5q-69 -50 -69 -119q0 -46 33.5 -75.5t83.5 -29.5z" />
    <glyph glyph-name="nine" unicode="9" horiz-adv-x="513" 
d="M244 326q67 0 114 74q-17 160 -120 160q-41 0 -68 -32t-27 -88t26.5 -85t74.5 -29zM217 -12q-102 0 -170 72l62 70q41 -48 102 -48q143 0 150 235q-27 -34 -65.5 -54t-73.5 -20q-85 0 -135 50t-50 147q0 93 58 150.5t142 57.5q100 0 165 -79t65 -231q0 -174 -71.5 -262
t-178.5 -88z" />
    <glyph glyph-name="colon" unicode=":" horiz-adv-x="275" 
d="M138 330q-32 0 -53.5 22t-21.5 56t21.5 56t53.5 22t53 -22t21 -56t-21 -56t-53 -22zM138 -12q-32 0 -53.5 22t-21.5 56t21.5 56t53.5 22t53 -22t21 -56t-21 -56t-53 -22z" />
    <glyph glyph-name="semicolon" unicode=";" horiz-adv-x="275" 
d="M138 330q-32 0 -53.5 22t-21.5 56t21.5 56t53.5 22t53 -22t21 -56t-21 -56t-53 -22zM72 -182l-25 63q48 19 75 51t26 70h-9q-31 0 -52.5 19.5t-21.5 51.5t22.5 51.5t54.5 19.5q40 0 63 -31t23 -87q0 -74 -41 -128t-115 -80z" />
    <glyph glyph-name="less" unicode="&#x3c;" horiz-adv-x="513" 
d="M479 117l-445 173v84l445 173v-97l-193 -68l-135 -48v-4l135 -48l193 -68v-97z" />
    <glyph glyph-name="equal" unicode="=" horiz-adv-x="513" 
d="M34 400v84h445v-84h-445zM34 176v84h445v-84h-445z" />
    <glyph glyph-name="greater" unicode="&#x3e;" horiz-adv-x="513" 
d="M34 117v97l193 68l135 48v4l-135 48l-193 68v97l445 -173v-84z" />
    <glyph glyph-name="question" unicode="?" horiz-adv-x="444" 
d="M157 215q-7 49 12 94.5t45.5 73t50 62t23.5 63.5q0 36 -21.5 58t-59.5 22q-56 0 -103 -52l-64 59q75 87 181 87q81 0 130 -43t49 -123q0 -35 -16 -67t-38 -57.5l-44 -51t-35 -57.5t-9 -68h-101zM208 -12q-32 0 -53 22t-21 56t21 56t53 22t53.5 -22t21.5 -56t-21.5 -56
t-53.5 -22z" />
    <glyph glyph-name="at" unicode="@" horiz-adv-x="875" 
d="M416 -164q-157 0 -261.5 96.5t-104.5 271.5q0 100 35 186t94 144t138 91t167 33q155 0 248.5 -95t93.5 -249q0 -125 -66 -197.5t-148 -72.5q-44 0 -73.5 19.5t-36.5 56.5h-2q-23 -30 -56 -49t-65 -19q-56 0 -91 39.5t-35 106.5q0 90 57 164.5t140 74.5q52 0 78 -49h2
l13 41h73l-43 -211q-25 -101 50 -101q49 0 88 54t39 139q0 121 -70 198.5t-205 77.5q-88 0 -166.5 -46t-128.5 -134t-50 -198q0 -142 83.5 -220.5t211.5 -78.5q82 0 157 41l27 -64q-88 -50 -193 -50zM403 127q37 0 79 52l26 147q-22 35 -55 35q-48 0 -79.5 -50t-31.5 -106
q0 -78 61 -78z" />
    <glyph glyph-name="A" unicode="A" horiz-adv-x="558" 
d="M217 348l-23 -80h167l-23 80q-15 49 -59 216h-4q-33 -134 -58 -216zM-2 0l213 654h136l213 -654h-122l-51 177h-220l-51 -177h-118z" />
    <glyph glyph-name="B" unicode="B" horiz-adv-x="597" 
d="M83 0v654h209q234 0 234 -161q0 -48 -24.5 -87.5t-66.5 -54.5v-4q57 -13 91 -52.5t34 -102.5q0 -95 -69 -143.5t-182 -48.5h-226zM199 384h83q130 0 130 92q0 47 -31.5 67.5t-96.5 20.5h-85v-180zM199 90h98q150 0 150 108q0 99 -150 99h-98v-207z" />
    <glyph glyph-name="C" unicode="C" horiz-adv-x="576" 
d="M344 -12q-128 0 -211.5 89.5t-83.5 247.5q0 156 85.5 248.5t213.5 92.5q112 0 189 -83l-62 -75q-57 57 -124 57q-81 0 -132 -64t-51 -173q0 -111 48.5 -175t131.5 -64q78 0 140 67l62 -73q-83 -95 -206 -95z" />
    <glyph glyph-name="D" unicode="D" horiz-adv-x="625" 
d="M83 0v654h175q152 0 235 -82t83 -242q0 -161 -82 -245.5t-230 -84.5h-181zM199 94h51q207 0 207 236q0 230 -207 230h-51v-466z" />
    <glyph glyph-name="E" unicode="E" horiz-adv-x="538" 
d="M83 0v654h394v-98h-278v-167h235v-98h-235v-193h288v-98h-404z" />
    <glyph glyph-name="F" unicode="F" horiz-adv-x="510" 
d="M83 0v654h395v-98h-279v-185h238v-98h-238v-273h-116z" />
    <glyph glyph-name="G" unicode="G" horiz-adv-x="628" 
d="M357 -12q-137 0 -222.5 89t-85.5 248q0 157 87.5 249t221.5 92q117 0 198 -83l-62 -75q-59 57 -132 57q-88 0 -141 -64t-53 -173q0 -113 51.5 -176t148.5 -63q62 0 94 29v141h-124v95h228v-288q-35 -35 -90 -56.5t-119 -21.5z" />
    <glyph glyph-name="H" unicode="H" horiz-adv-x="663" 
d="M83 0v654h116v-263h265v263h116v-654h-116v290h-265v-290h-116z" />
    <glyph glyph-name="I" unicode="I" horiz-adv-x="282" 
d="M83 0v654h116v-654h-116z" />
    <glyph glyph-name="J" unicode="J" horiz-adv-x="494" 
d="M219 -12q-133 0 -195 111l80 59q37 -69 102 -69q47 0 69.5 29t22.5 97v439h116v-449q0 -96 -48.5 -156.5t-146.5 -60.5z" />
    <glyph glyph-name="K" unicode="K" horiz-adv-x="597" 
d="M83 0v654h116v-297h3l233 297h129l-201 -255l235 -399h-128l-177 308l-94 -117v-191h-116z" />
    <glyph glyph-name="L" unicode="L" horiz-adv-x="502" 
d="M83 0v654h116v-556h272v-98h-388z" />
    <glyph glyph-name="M" unicode="M" horiz-adv-x="745" 
d="M83 0v654h131l116 -320q7 -20 42 -128h4q5 15 19 60t22 68l113 320h132v-654h-107v299q0 58 15 208h-4l-53 -152l-107 -294h-69l-108 294l-52 152h-4q15 -180 15 -208v-299h-105z" />
    <glyph glyph-name="N" unicode="N" horiz-adv-x="656" 
d="M83 0v654h119l204 -368l67 -139h4q-1 17 -5.5 66t-7 86.5t-2.5 70.5v284h111v-654h-119l-204 368l-67 139h-4q1 -20 5.5 -67t7 -84t2.5 -70v-286h-111z" />
    <glyph glyph-name="O" unicode="O" horiz-adv-x="674" 
d="M337 -12q-129 0 -208.5 92.5t-79.5 249.5q0 156 79.5 246t208.5 90q130 0 209.5 -90t79.5 -246q0 -157 -79.5 -249.5t-209.5 -92.5zM337 89q77 0 123 65.5t46 175.5q0 109 -45.5 172t-123.5 63t-123.5 -63t-45.5 -172q0 -110 46 -175.5t123 -65.5z" />
    <glyph glyph-name="P" unicode="P" horiz-adv-x="582" 
d="M83 0v654h206q253 0 253 -202q0 -104 -69 -158t-180 -54h-94v-240h-116zM199 333h85q144 0 144 119q0 60 -36 84.5t-112 24.5h-81v-228z" />
    <glyph glyph-name="Q" unicode="Q" horiz-adv-x="674" 
d="M337 83q78 0 123.5 66.5t45.5 180.5q0 109 -45.5 172t-123.5 63t-123.5 -63t-45.5 -172q0 -114 45.5 -180.5t123.5 -66.5zM545 -174q-94 0 -161.5 45.5t-100.5 121.5q-107 19 -170.5 108t-63.5 229q0 156 79.5 246t208.5 90q130 0 209.5 -90t79.5 -246q0 -135 -59.5 -223
t-160.5 -111q43 -75 152 -75q39 0 71 10l21 -86q-42 -19 -105 -19z" />
    <glyph glyph-name="R" unicode="R" horiz-adv-x="592" 
d="M83 0v654h221q240 0 240 -194q0 -142 -130 -187l156 -273h-130l-141 256h-100v-256h-116zM199 348h93q138 0 138 112q0 54 -34.5 77.5t-103.5 23.5h-93v-213z" />
    <glyph glyph-name="S" unicode="S" horiz-adv-x="545" 
d="M274 -12q-138 0 -236 96l68 79q79 -74 170 -74q55 0 84.5 22.5t29.5 61.5q0 26 -15 44.5t-31.5 27t-54.5 24.5l-90 39q-132 56 -132 174q0 79 62.5 131.5t157.5 52.5q118 0 201 -83l-59 -74q-67 56 -142 56q-47 0 -75 -20.5t-28 -56.5q0 -24 17 -42.5t33.5 -26.5
t53.5 -23l89 -37q63 -27 97.5 -68.5t34.5 -108.5q0 -82 -64 -138t-171 -56z" />
    <glyph glyph-name="T" unicode="T" horiz-adv-x="546" 
d="M215 0v556h-189v98h494v-98h-189v-556h-116z" />
    <glyph glyph-name="U" unicode="U" horiz-adv-x="655" 
d="M328 -12q-248 0 -248 299v367h116v-376q0 -189 132 -189q136 0 136 189v376h111v-367q0 -299 -247 -299z" />
    <glyph glyph-name="V" unicode="V" horiz-adv-x="536" 
d="M200 0l-204 654h123l92 -329q9 -32 27.5 -102t30.5 -111h4q13 44 33 120.5t24 92.5l91 329h119l-203 -654h-137z" />
    <glyph glyph-name="W" unicode="W" horiz-adv-x="800" 
d="M148 0l-130 654h119l57 -330q22 -140 32 -209h4q34 168 43 209l80 330h101l80 -330q8 -38 23 -109.5t21 -99.5h4q5 37 15.5 107.5t15.5 101.5l57 330h111l-125 -654h-144l-81 344q-19 87 -29 151h-4q-13 -72 -30 -151l-79 -344h-141z" />
    <glyph glyph-name="X" unicode="X" horiz-adv-x="541" 
d="M13 0l186 337l-174 317h129l72 -145q9 -16 25 -49.5t25 -50.5h4q27 67 44 100l69 145h123l-174 -322l186 -332h-129l-80 154l-25.5 51t-27.5 56h-4q-22 -52 -48 -107l-78 -154h-123z" />
    <glyph glyph-name="Y" unicode="Y" horiz-adv-x="501" 
d="M192 0v243l-196 411h124l71 -167q30 -77 58 -144h4q54 129 60 144l71 167h121l-197 -411v-243h-116z" />
    <glyph glyph-name="Z" unicode="Z" horiz-adv-x="540" 
d="M40 0v70l316 486h-287v98h431v-70l-317 -486h319v-98h-462z" />
    <glyph glyph-name="bracketleft" unicode="[" horiz-adv-x="324" 
d="M90 -152v860h196v-63h-109v-734h109v-63h-196z" />
    <glyph glyph-name="backslash" unicode="\" horiz-adv-x="344" 
d="M255 -160l-234 870h78l234 -870h-78z" />
    <glyph glyph-name="bracketright" unicode="]" horiz-adv-x="324" 
d="M38 -152v63h109v734h-109v63h196v-860h-196z" />
    <glyph glyph-name="asciicircum" unicode="^" horiz-adv-x="513" 
d="M55 279l153 391h96l154 -391h-97l-55 151l-48 135h-4l-47 -135l-55 -151h-97z" />
    <glyph glyph-name="underscore" unicode="_" horiz-adv-x="500" 
d="M12 -133v69h476v-69h-476z" />
    <glyph glyph-name="grave" unicode="`" horiz-adv-x="549" 
d="M276 573l-170 155l80 76l147 -174z" />
    <glyph glyph-name="a" unicode="a" horiz-adv-x="516" 
d="M192 -12q-65 0 -105 40t-40 104q0 79 69 122.5t220 59.5q-4 96 -90 96q-57 0 -138 -48l-42 77q102 64 202 64q91 0 137 -54t46 -158v-291h-95l-8 54h-4q-78 -66 -152 -66zM229 78q48 0 107 54v110q-96 -12 -137 -37t-41 -64q0 -63 71 -63z" />
    <glyph glyph-name="b" unicode="b" horiz-adv-x="563" 
d="M311 -12q-70 0 -134 64h-3l-10 -52h-91v706h115v-182l-3 -82q69 61 142 61q91 0 142.5 -67t51.5 -182q0 -122 -62 -194t-148 -72zM287 83q51 0 83 44t32 125q0 156 -106 156q-52 0 -108 -55v-229q48 -41 99 -41z" />
    <glyph glyph-name="c" unicode="c" horiz-adv-x="462" 
d="M278 -12q-103 0 -170 69t-67 188q0 118 71.5 188t174.5 70q80 0 144 -55l-56 -75q-41 36 -82 36q-60 0 -97 -45t-37 -119q0 -73 36.5 -118t94.5 -45q50 0 101 42l47 -76q-69 -60 -160 -60z" />
    <glyph glyph-name="d" unicode="d" horiz-adv-x="564" 
d="M245 -12q-93 0 -147.5 68t-54.5 189q0 115 62 186.5t146 71.5q67 0 129 -54l-4 79v178h115v-706h-95l-8 53h-4q-65 -65 -139 -65zM273 83q55 0 103 55v229q-46 41 -100 41q-49 0 -81.5 -43.5t-32.5 -118.5q0 -79 29 -121t82 -42z" />
    <glyph glyph-name="e" unicode="e" horiz-adv-x="507" 
d="M283 -12q-105 0 -173.5 69.5t-68.5 187.5q0 115 67.5 186.5t158.5 71.5q97 0 150 -63.5t53 -169.5q0 -36 -5 -56h-312q7 -65 46 -101t99 -36q58 0 114 36l39 -72q-80 -53 -168 -53zM152 292h218q0 58 -25.5 90t-74.5 32q-45 0 -78 -32t-40 -90z" />
    <glyph glyph-name="f" unicode="f" horiz-adv-x="317" 
d="M93 0v400h-66v86l66 5v51q0 81 40 128.5t123 47.5q48 0 90 -17l-22 -86q-27 12 -54 12q-62 0 -62 -83v-53h96v-91h-96v-400h-115z" />
    <glyph glyph-name="g" unicode="g" horiz-adv-x="520" 
d="M244 -217q-92 0 -148 33t-56 95q0 61 70 105v4q-44 28 -44 82q0 52 54 91v4q-27 21 -45.5 55t-18.5 75q0 81 56.5 128.5t137.5 47.5q38 0 72 -12h176v-85h-90q28 -33 28 -83q0 -79 -52.5 -123t-133.5 -44q-35 0 -67 13q-24 -21 -24 -47q0 -45 80 -45h87q180 0 180 -121
q0 -74 -72 -123.5t-190 -49.5zM250 228q37 0 61 26.5t24 72.5q0 45 -24 71t-61 26t-61.5 -26t-24.5 -71q0 -46 24.5 -72.5t61.5 -26.5zM262 -142q58 0 95.5 23.5t37.5 55.5q0 27 -21.5 38t-65.5 11h-67q-40 0 -67 7q-38 -29 -38 -65q0 -33 33.5 -51.5t92.5 -18.5z" />
    <glyph glyph-name="h" unicode="h" horiz-adv-x="558" 
d="M73 0v706h115v-182l-4 -95q78 74 157 74q151 0 151 -195v-308h-115v293q0 60 -18 85.5t-59 25.5q-30 0 -54 -14t-58 -47v-343h-115z" />
    <glyph glyph-name="i" unicode="i" horiz-adv-x="262" 
d="M73 0v491h115v-491h-115zM131 577q-31 0 -51 18.5t-20 46.5q0 29 20 47.5t51 18.5t51 -18.5t20 -47.5q0 -28 -20 -46.5t-51 -18.5z" />
    <glyph glyph-name="j" unicode="j" horiz-adv-x="263" 
d="M34 -206q-45 0 -80 13l22 86q26 -8 42 -8q32 0 44 21.5t12 66.5v518h116v-516q0 -181 -156 -181zM132 577q-30 0 -50.5 18.5t-20.5 46.5q0 29 20.5 47.5t50.5 18.5q31 0 51.5 -18.5t20.5 -47.5q0 -28 -20.5 -46.5t-51.5 -18.5z" />
    <glyph glyph-name="k" unicode="k" horiz-adv-x="522" 
d="M73 0v706h113v-441h3l182 226h126l-168 -200l185 -291h-125l-126 213l-77 -88v-125h-113z" />
    <glyph glyph-name="l" unicode="l" horiz-adv-x="271" 
d="M185 -12q-112 0 -112 138v580h115v-586q0 -38 25 -38q9 0 18 2l15 -86q-23 -10 -61 -10z" />
    <glyph glyph-name="m" unicode="m" horiz-adv-x="843" 
d="M73 0v491h95l8 -67h4q74 79 150 79q99 0 136 -88q83 88 158 88q152 0 152 -195v-308h-116v293q0 60 -18 85.5t-57 25.5q-46 0 -103 -61v-343h-115v293q0 60 -18 85.5t-58 25.5q-46 0 -103 -61v-343h-115z" />
    <glyph glyph-name="n" unicode="n" horiz-adv-x="560" 
d="M73 0v491h95l8 -66h4q80 78 161 78q151 0 151 -195v-308h-115v293q0 60 -18 85.5t-59 25.5q-30 0 -54 -14t-58 -47v-343h-115z" />
    <glyph glyph-name="o" unicode="o" horiz-adv-x="549" 
d="M274 -12q-96 0 -164.5 70t-68.5 187q0 118 68.5 188t164.5 70q97 0 165.5 -70t68.5 -188t-68.5 -187.5t-165.5 -69.5zM274 82q54 0 85 44.5t31 118.5q0 75 -31 119.5t-85 44.5t-84.5 -44.5t-30.5 -119.5q0 -74 31 -118.5t84 -44.5z" />
    <glyph glyph-name="p" unicode="p" horiz-adv-x="564" 
d="M73 -194v685h95l8 -52h4q75 64 148 64q91 0 142 -67.5t51 -182.5q0 -121 -62 -193t-148 -72q-62 0 -126 54l3 -82v-154h-115zM287 83q51 0 83 44t32 125q0 156 -106 156q-52 0 -108 -55v-229q49 -41 99 -41z" />
    <glyph glyph-name="q" unicode="q" horiz-adv-x="564" 
d="M376 -194v161l4 82q-63 -61 -135 -61q-93 0 -147.5 68t-54.5 189q0 115 62 186.5t146 71.5q76 0 136 -59h3l10 47h91v-685h-115zM273 83q55 0 103 55v229q-46 41 -100 41q-49 0 -81.5 -43.5t-32.5 -118.5q0 -79 29 -121t82 -42z" />
    <glyph glyph-name="r" unicode="r" horiz-adv-x="373" 
d="M73 0v491h95l8 -87h4q26 47 62.5 73t76.5 26q35 0 56 -10l-20 -100q-27 8 -51 8q-32 0 -63.5 -24.5t-52.5 -76.5v-300h-115z" />
    <glyph glyph-name="s" unicode="s" horiz-adv-x="431" 
d="M210 -12q-102 0 -186 68l54 74q71 -55 136 -55q38 0 58 16t20 43q0 15 -7.5 26t-27.5 22t-30 15l-40 16q-62 23 -100 55.5t-38 87.5q0 65 48.5 106t130.5 41q87 0 163 -59l-53 -70q-57 42 -108 42q-35 0 -53.5 -15t-18.5 -39q0 -17 14.5 -30.5t31.5 -21t47 -18.5l9 -3
q32 -12 51.5 -21.5t43 -27t35 -42.5t11.5 -58q0 -66 -50.5 -109t-140.5 -43z" />
    <glyph glyph-name="t" unicode="t" horiz-adv-x="361" 
d="M246 -12q-156 0 -156 178v234h-70v86l76 5l14 134h96v-134h125v-91h-125v-234q0 -86 69 -86q25 0 51 11l20 -85q-54 -18 -100 -18z" />
    <glyph glyph-name="u" unicode="u" horiz-adv-x="556" 
d="M219 -12q-151 0 -151 195v308h115v-293q0 -60 18 -85.5t58 -25.5q32 0 56.5 15.5t52.5 52.5v336h115v-491h-94l-9 72h-3q-71 -84 -158 -84z" />
    <glyph glyph-name="v" unicode="v" horiz-adv-x="495" 
d="M183 0l-171 491h117l78 -255q5 -18 19.5 -69t21.5 -79h4q28 100 42 148l78 255h111l-167 -491h-133z" />
    <glyph glyph-name="w" unicode="w" horiz-adv-x="748" 
d="M154 0l-130 491h116l59 -255q6 -28 15 -79t11 -62h4q15 79 31 141l64 255h105l65 -255q7 -26 33 -141h4q4 20 12.5 67.5t13.5 73.5l59 255h108l-125 -491h-137l-57 229q-6 27 -17 80t-13 63h-4q-14 -82 -29 -144l-56 -228h-132z" />
    <glyph glyph-name="x" unicode="x" horiz-adv-x="481" 
d="M14 0l156 256l-146 235h124l55 -93q16 -30 45 -83h4q6 13 19 41t19 42l47 93h119l-145 -248l156 -243h-124l-60 97q-28 51 -50 87h-4q-36 -72 -43 -87l-52 -97h-120z" />
    <glyph glyph-name="y" unicode="y" horiz-adv-x="495" 
d="M106 -202q-34 0 -64 10l21 90q21 -7 35 -7q71 0 98 84l9 31l-193 485h117l85 -241q7 -21 21 -67.5t22 -70.5h4q28 105 37 138l74 241h111l-178 -513q-33 -90 -78 -135t-121 -45z" />
    <glyph glyph-name="z" unicode="z" horiz-adv-x="443" 
d="M34 0v62l232 338h-206v91h350v-61l-231 -338h239v-92h-384z" />
    <glyph glyph-name="braceleft" unicode="{" horiz-adv-x="324" 
d="M232 -152q-65 0 -94 30.5t-29 107.5q0 37 4.5 93t4.5 88t-20 53.5t-66 22.5v70q46 1 66 22.5t20 52.5q0 32 -4.5 88.5t-4.5 93.5q0 77 29 107.5t94 30.5h54v-63h-23q-36 0 -48.5 -17t-12.5 -63q0 -28 2.5 -83.5t2.5 -88.5q0 -53 -15.5 -78.5t-51.5 -34.5v-4
q36 -9 51.5 -35t15.5 -78q0 -33 -2.5 -88.5t-2.5 -83.5q0 -46 12.5 -63t48.5 -17h23v-63h-54z" />
    <glyph glyph-name="bar" unicode="|" horiz-adv-x="255" 
d="M89 -250v1000h77v-1000h-77z" />
    <glyph glyph-name="braceright" unicode="}" horiz-adv-x="324" 
d="M38 -152v63h23q36 0 48.5 17t12.5 63q0 28 -2.5 83.5t-2.5 88.5q0 52 15.5 78t51.5 35v4q-36 9 -51.5 34.5t-15.5 78.5q0 33 2.5 88.5t2.5 83.5q0 46 -12.5 63t-48.5 17h-23v63h54q65 0 94 -30.5t29 -107.5q0 -37 -4.5 -93.5t-4.5 -88.5q0 -31 20 -52.5t66 -22.5v-70
q-46 -1 -66 -22.5t-20 -53.5t4.5 -88t4.5 -93q0 -77 -29 -107.5t-94 -30.5h-54z" />
    <glyph glyph-name="asciitilde" unicode="~" horiz-adv-x="513" 
d="M343 248q-34 0 -66 20t-59 40t-50 20q-42 0 -74 -59l-62 46q60 97 138 97q34 0 66 -20t59 -40t50 -20q42 0 74 59l61 -47q-59 -96 -137 -96z" />
    <glyph glyph-name="uni00A0" unicode="&#xa0;" horiz-adv-x="205" 
 />
    <glyph glyph-name="exclamdown" unicode="&#xa1;" horiz-adv-x="315" 
d="M100 -179l3 114l16 341h77l16 -341l4 -114h-116zM158 347q-32 0 -53.5 22.5t-21.5 56.5q0 33 21.5 55t53.5 22t53 -22t21 -55q0 -34 -21 -56.5t-53 -22.5z" />
    <glyph glyph-name="cent" unicode="&#xa2;" horiz-adv-x="513" 
d="M173 308q0 -56 25 -94.5t71 -51.5v293q-46 -15 -71 -53.5t-25 -93.5zM269 -37v99q-96 12 -152 76.5t-56 169.5q0 102 57.5 166t150.5 79v101h66v-98q75 -4 128 -57l-54 -71q-35 31 -74 35v-308q43 4 88 41l48 -73q-58 -52 -136 -62v-98h-66z" />
    <glyph glyph-name="sterling" unicode="&#xa3;" horiz-adv-x="513" 
d="M51 0v71q49 24 77.5 68t28.5 98q0 13 -4 41h-100v69l67 5h12q-21 67 -21 102q0 89 55 141.5t145 52.5q99 0 164 -78l-64 -63q-41 47 -90 47q-47 0 -73 -28t-26 -78q0 -36 17 -96h154v-74h-137q3 -20 3 -42q0 -78 -53 -134v-4h270v-98h-425z" />
    <glyph glyph-name="currency" unicode="&#xa4;" horiz-adv-x="513" 
d="M82 93l-59 60l62 63q-35 49 -35 113q0 65 35 114l-62 63l59 60l68 -70q48 31 106 31t106 -31l69 70l59 -60l-63 -63q35 -49 35 -114q0 -64 -35 -113l63 -63l-59 -60l-69 70q-46 -31 -106 -31q-59 0 -105 31zM256 214q44 0 73 32t29 83q0 52 -29 84t-73 32
q-43 0 -72.5 -32.5t-29.5 -83.5t29.5 -83t72.5 -32z" />
    <glyph glyph-name="yen" unicode="&#xa5;" horiz-adv-x="513" 
d="M198 0v152h-157v60h157v59h-157v59h131l-154 306h119l64 -151q48 -116 55 -133h4q19 45 55 133l64 151h116l-155 -306h132v-59h-158v-59h158v-60h-158v-152h-116z" />
    <glyph glyph-name="brokenbar" unicode="&#xa6;" horiz-adv-x="255" 
d="M89 302v448h77v-448h-77zM89 -250v459h77v-459h-77z" />
    <glyph glyph-name="section" unicode="&#xa7;" horiz-adv-x="513" 
d="M140 342q0 -26 19.5 -47t42.5 -32.5t63.5 -29.5t61.5 -30q46 24 46 72q0 26 -19.5 48t-41.5 33t-63.5 29.5t-61.5 29.5q-47 -28 -47 -73zM238 -74q-118 0 -184 78l68 60q52 -52 116 -52q34 0 53 15.5t19 40.5q0 26 -27.5 46t-67 36.5t-79.5 36.5t-67.5 57.5t-27.5 89.5
q0 81 83 129q-30 33 -30 82q0 62 43.5 102t120.5 40q89 0 168 -61l-54 -73q-54 47 -108 47q-66 0 -66 -50q0 -24 28 -44t68.5 -37t81 -38t68.5 -58.5t28 -88.5q0 -82 -83 -131q26 -34 26 -80q0 -64 -48 -105.5t-129 -41.5z" />
    <glyph glyph-name="dieresis" unicode="&#xa8;" horiz-adv-x="549" 
d="M171 578q-26 0 -43.5 17.5t-17.5 43.5t17.5 43.5t43.5 17.5q27 0 44 -17.5t17 -43.5t-17 -43.5t-44 -17.5zM377 578q-27 0 -44 17.5t-17 43.5t17 43.5t44 17.5q26 0 43.5 -17.5t17.5 -43.5t-17.5 -43.5t-43.5 -17.5z" />
    <glyph glyph-name="copyright" unicode="&#xa9;" horiz-adv-x="747" 
d="M374 -10q-136 0 -231.5 92.5t-95.5 241.5t95 239.5t232 90.5q136 0 231 -90.5t95 -239.5t-95 -241.5t-231 -92.5zM374 42q114 0 191 78.5t77 203.5q0 124 -77 201.5t-191 77.5q-115 0 -192 -77.5t-77 -201.5q0 -125 77 -203.5t192 -78.5zM384 126q-82 0 -135 53.5
t-53 143.5q0 85 56 138t133 53q71 0 129 -58l-45 -50q-39 37 -78 37q-50 0 -79.5 -33.5t-29.5 -86.5q0 -58 28.5 -92t76.5 -34q43 0 91 39l39 -56q-64 -54 -133 -54z" />
    <glyph glyph-name="ordfeminine" unicode="&#xaa;" horiz-adv-x="352" 
d="M133 377q-45 0 -72.5 27t-27.5 70q0 53 46 81t147 38q-3 59 -56 59q-39 0 -95 -32l-30 55q71 43 139 43q125 0 125 -141v-192h-67l-8 35h-4q-47 -43 -97 -43zM160 441q32 0 66 33v70q-112 -13 -112 -63q0 -40 46 -40z" />
    <glyph glyph-name="guillemotleft" unicode="&#xab;" horiz-adv-x="455" 
d="M182 61l-135 149v84l135 149l46 -37l-115 -154l115 -155zM356 61l-135 149v84l135 149l46 -37l-115 -154l115 -155z" />
    <glyph glyph-name="logicalnot" unicode="&#xac;" horiz-adv-x="513" 
d="M392 99v189h-358v84h445v-273h-87z" />
    <glyph glyph-name="uni00AD" unicode="&#xad;" horiz-adv-x="322" 
d="M42 210v84h238v-84h-238z" />
    <glyph glyph-name="registered" unicode="&#xae;" horiz-adv-x="443" 
d="M221 315q-81 0 -137 56.5t-56 142.5q0 87 56 143.5t137 56.5t137 -56.5t56 -143.5t-56 -143t-137 -56zM221 358q64 0 105 43.5t41 112.5q0 70 -41 114t-105 44t-105 -44t-41 -114q0 -69 41 -112.5t105 -43.5zM144 417v199h83q80 0 80 -65q0 -40 -37 -55l44 -79h-53
l-33 65h-34v-65h-50zM194 518h23q37 0 37 30t-36 30h-24v-60z" />
    <glyph glyph-name="macron" unicode="&#xaf;" horiz-adv-x="549" 
d="M134 596v76h280v-76h-280z" />
    <glyph glyph-name="degree" unicode="&#xb0;" horiz-adv-x="348" 
d="M175 413q-57 0 -96 38t-39 98t39 98t96 38t96 -38t39 -98t-39 -98t-96 -38zM175 472q31 0 51 21.5t20 55.5q0 35 -20 56.5t-51 21.5t-51 -21.5t-20 -56.5q0 -34 20 -55.5t51 -21.5z" />
    <glyph glyph-name="plusminus" unicode="&#xb1;" horiz-adv-x="513" 
d="M213 143v156h-179v83h179v179h87v-179h179v-83h-179v-156h-87zM34 0v83h445v-83h-445z" />
    <glyph glyph-name="two.sups" unicode="&#xb2;" horiz-adv-x="372" 
d="M48 385v48q95 82 136.5 128t41.5 83q0 33 -17.5 52t-48.5 19q-40 0 -77 -52l-50 46q56 78 140 78q63 0 100 -34t37 -95q0 -32 -19 -68.5t-39.5 -60.5t-65.5 -71h141v-73h-279z" />
    <glyph glyph-name="three.sups" unicode="&#xb3;" horiz-adv-x="372" 
d="M183 373q-100 0 -152 78l54 42q36 -53 91 -53q29 0 48 15.5t19 42.5q0 60 -107 60v51q43 0 67.5 16t24.5 44q0 23 -16 37t-43 14q-38 0 -72 -43l-50 44q58 66 136 66q55 0 92.5 -29t37.5 -78q0 -60 -62 -93q34 -11 55.5 -35.5t21.5 -59.5q0 -53 -42.5 -86t-102.5 -33z
" />
    <glyph glyph-name="acute" unicode="&#xb4;" horiz-adv-x="549" 
d="M272 573l-57 57l147 174l80 -76z" />
    <glyph glyph-name="uni00B5" unicode="&#xb5;" horiz-adv-x="578" 
d="M73 -178v669h115v-293q0 -58 18 -84.5t57 -26.5q31 0 56 17t51 62v325h116q-8 -328 -8 -368q0 -41 40 -41q15 0 30 6l15 -86q-31 -14 -73 -14q-92 0 -108 88h-4q-44 -84 -119 -84q-55 0 -78 34q1 -126 9 -204h-117z" />
    <glyph glyph-name="paragraph" unicode="&#xb6;" horiz-adv-x="599" 
d="M387 -80v734h116v-734h-116zM295 212q-113 0 -184 57.5t-71 166.5q0 115 67.5 166.5t180.5 51.5h44v-442h-37z" />
    <glyph glyph-name="periodcentered" unicode="&#xb7;" horiz-adv-x="275" 
d="M138 243q-32 0 -53.5 22t-21.5 56t21.5 56t53.5 22t53 -22t21 -56t-21 -56t-53 -22z" />
    <glyph glyph-name="cedilla" unicode="&#xb8;" horiz-adv-x="549" 
d="M184 -233l-10 50q60 4 83 14.5t23 32.5q0 35 -77 45l46 94h70l-29 -65q38 -9 56.5 -26t18.5 -47q0 -90 -181 -98z" />
    <glyph glyph-name="one.sups" unicode="&#xb9;" horiz-adv-x="372" 
d="M168 385v294h-86v54q60 10 104 42h69v-390h-87z" />
    <glyph glyph-name="ordmasculine" unicode="&#xba;" horiz-adv-x="369" 
d="M184 377q-66 0 -111.5 46t-45.5 124t45.5 124.5t111.5 46.5t111.5 -46.5t45.5 -124.5t-45.5 -124t-111.5 -46zM184 444q35 0 53.5 28t18.5 75q0 48 -18.5 76.5t-53.5 28.5t-53.5 -28.5t-18.5 -76.5q0 -47 18.5 -75t53.5 -28z" />
    <glyph glyph-name="guillemotright" unicode="&#xbb;" horiz-adv-x="455" 
d="M99 61l-45 36l114 155l-114 154l45 37l136 -149v-84zM273 61l-45 36l114 155l-114 154l45 37l136 -149v-84z" />
    <glyph glyph-name="onequarter" unicode="&#xbc;" horiz-adv-x="795" 
d="M141 264v294h-86v54q60 10 104 42h69v-390h-87zM183 -12l357 678h70l-356 -678h-71zM640 0v95h-179v44l152 251h104v-236h58v-59h-58v-95h-77zM545 154h95v55l5 113h-4l-45 -79z" />
    <glyph glyph-name="onehalf" unicode="&#xbd;" horiz-adv-x="827" 
d="M141 264v294h-86v54q60 10 104 42h69v-390h-87zM165 -12l357 678h70l-356 -678h-71zM503 0v48q95 82 136.5 128t41.5 83q0 33 -17.5 52t-48.5 19q-40 0 -77 -52l-50 46q56 78 140 78q63 0 100 -34t37 -95q0 -32 -19 -68.5t-39.5 -60.5t-65.5 -71h141v-73h-279z" />
    <glyph glyph-name="threequarters" unicode="&#xbe;" horiz-adv-x="807" 
d="M181 252q-100 0 -152 78l54 42q36 -53 91 -53q29 0 48 15.5t19 42.5q0 60 -107 60v51q43 0 67.5 16t24.5 44q0 23 -16 37t-43 14q-38 0 -72 -43l-50 44q58 66 136 66q55 0 92.5 -29t37.5 -78q0 -60 -62 -93q34 -11 55.5 -35.5t21.5 -59.5q0 -53 -42.5 -86t-102.5 -33z
M213 -12l357 678h70l-356 -678h-71zM652 0v95h-179v44l152 251h104v-236h58v-59h-58v-95h-77zM557 154h95v55l5 113h-4l-45 -79z" />
    <glyph glyph-name="questiondown" unicode="&#xbf;" horiz-adv-x="444" 
d="M224 -191q-81 0 -130 43t-49 123q0 35 16 67t38 57.5t43.5 51t34.5 57.5t9 68h102q6 -41 -5.5 -77.5t-32 -63.5t-42 -51.5t-37 -50.5t-15.5 -50q0 -36 22 -58t60 -22q53 0 102 52l65 -59q-78 -87 -181 -87zM236 347q-32 0 -53 22.5t-21 56.5q0 33 21 55t53 22t53 -22
t21 -55q0 -34 -21 -56.5t-53 -22.5z" />
    <glyph glyph-name="Agrave" unicode="&#xc0;" horiz-adv-x="558" 
d="M217 348l-23 -80h167l-23 80q-15 49 -59 216h-4q-33 -134 -58 -216zM-2 0l213 654h136l213 -654h-122l-51 177h-220l-51 -177h-118zM291 688l-168 117l62 76l157 -135z" />
    <glyph glyph-name="Aacute" unicode="&#xc1;" horiz-adv-x="558" 
d="M217 348l-23 -80h167l-23 80q-15 49 -59 216h-4q-33 -134 -58 -216zM-2 0l213 654h136l213 -654h-122l-51 177h-220l-51 -177h-118zM263 688l-51 58l157 135l62 -76z" />
    <glyph glyph-name="Acircumflex" unicode="&#xc2;" horiz-adv-x="558" 
d="M217 348l-23 -80h167l-23 80q-15 49 -59 216h-4q-33 -134 -58 -216zM-2 0l213 654h136l213 -654h-122l-51 177h-220l-51 -177h-118zM118 725l97 111h124l97 -111l-50 -33l-107 88h-4l-107 -88z" />
    <glyph glyph-name="Atilde" unicode="&#xc3;" horiz-adv-x="558" 
d="M217 348l-23 -80h167l-23 80q-15 49 -59 216h-4q-33 -134 -58 -216zM-2 0l213 654h136l213 -654h-122l-51 177h-220l-51 -177h-118zM350 700q-31 0 -58.5 16t-48 32t-36.5 16q-36 0 -42 -57l-76 6q4 65 34.5 99t80.5 34q31 0 58.5 -16t48 -32t36.5 -16q35 0 42 58l76 -6
q-4 -65 -34.5 -99.5t-80.5 -34.5z" />
    <glyph glyph-name="Adieresis" unicode="&#xc4;" horiz-adv-x="558" 
d="M217 348l-23 -80h167l-23 80q-15 49 -59 216h-4q-33 -134 -58 -216zM-2 0l213 654h136l213 -654h-122l-51 177h-220l-51 -177h-118zM170 708q-26 0 -42.5 16.5t-16.5 42.5t16.5 43t42.5 17t43 -17t17 -43t-17 -42.5t-43 -16.5zM384 708q-26 0 -43 16.5t-17 42.5t17 43
t43 17t42.5 -17t16.5 -43t-16.5 -42.5t-42.5 -16.5z" />
    <glyph glyph-name="Aring" unicode="&#xc5;" horiz-adv-x="558" 
d="M217 348l-23 -80h167l-23 80q-15 49 -59 216h-4q-33 -134 -58 -216zM-2 0l213 654h136l213 -654h-122l-51 177h-220l-51 -177h-118zM277 698q-47 0 -76.5 26t-29.5 68q0 43 29.5 69t76.5 26q46 0 76 -26t30 -69q0 -42 -30 -68t-76 -26zM277 744q19 0 32.5 13t13.5 35
t-13.5 35.5t-32.5 13.5q-20 0 -33.5 -13.5t-13.5 -35.5t13.5 -35t33.5 -13z" />
    <glyph glyph-name="AE" unicode="&#xc6;" horiz-adv-x="834" 
d="M297 366l-51 -105h148v304h-4q-15 -31 -46 -98t-47 -101zM-3 0l327 654h449v-98h-263v-167h221v-98h-221v-193h273v-98h-389v170h-192l-83 -170h-122z" />
    <glyph glyph-name="Ccedilla" unicode="&#xc7;" horiz-adv-x="576" 
d="M252 -233l-10 50q60 4 83 14.5t23 32.5q0 35 -77 45l39 81q-115 12 -188 100t-73 235q0 156 85.5 248.5t213.5 92.5q112 0 189 -83l-62 -75q-57 57 -124 57q-81 0 -132 -64t-51 -173q0 -111 48.5 -175t131.5 -64q78 0 140 67l62 -73q-69 -80 -169 -93l-23 -52
q38 -9 56.5 -26t18.5 -47q0 -90 -181 -98z" />
    <glyph glyph-name="Egrave" unicode="&#xc8;" horiz-adv-x="538" 
d="M83 0v654h394v-98h-278v-167h235v-98h-235v-193h288v-98h-404zM300 688l-168 117l62 76l157 -135z" />
    <glyph glyph-name="Eacute" unicode="&#xc9;" horiz-adv-x="538" 
d="M83 0v654h394v-98h-278v-167h235v-98h-235v-193h288v-98h-404zM272 688l-51 58l157 135l62 -76z" />
    <glyph glyph-name="Ecircumflex" unicode="&#xca;" horiz-adv-x="538" 
d="M83 0v654h394v-98h-278v-167h235v-98h-235v-193h288v-98h-404zM127 725l97 111h124l97 -111l-50 -33l-107 88h-4l-107 -88z" />
    <glyph glyph-name="Edieresis" unicode="&#xcb;" horiz-adv-x="538" 
d="M83 0v654h394v-98h-278v-167h235v-98h-235v-193h288v-98h-404zM179 708q-26 0 -42.5 16.5t-16.5 42.5t16.5 43t42.5 17t43 -17t17 -43t-17 -42.5t-43 -16.5zM393 708q-26 0 -43 16.5t-17 42.5t17 43t43 17t42.5 -17t16.5 -43t-16.5 -42.5t-42.5 -16.5z" />
    <glyph glyph-name="Igrave" unicode="&#xcc;" horiz-adv-x="282" 
d="M83 0v654h116v-654h-116zM155 688l-168 117l62 76l157 -135z" />
    <glyph glyph-name="Iacute" unicode="&#xcd;" horiz-adv-x="282" 
d="M83 0v654h116v-654h-116zM127 688l-51 58l157 135l62 -76z" />
    <glyph glyph-name="Icircumflex" unicode="&#xce;" horiz-adv-x="282" 
d="M83 0v654h116v-654h-116zM-18 725l97 111h124l97 -111l-50 -33l-107 88h-4l-107 -88z" />
    <glyph glyph-name="Idieresis" unicode="&#xcf;" horiz-adv-x="282" 
d="M83 0v654h116v-654h-116zM34 708q-26 0 -42.5 16.5t-16.5 42.5t16.5 43t42.5 17t43 -17t17 -43t-17 -42.5t-43 -16.5zM248 708q-26 0 -43 16.5t-17 42.5t17 43t43 17t42.5 -17t16.5 -43t-16.5 -42.5t-42.5 -16.5z" />
    <glyph glyph-name="Eth" unicode="&#xd0;" horiz-adv-x="649" 
d="M30 311v55l77 4v284h175q152 0 235 -82t83 -242q0 -161 -82 -245.5t-230 -84.5h-181v311h-77zM223 94h51q207 0 207 236q0 230 -207 230h-51v-190h137v-59h-137v-217z" />
    <glyph glyph-name="Ntilde" unicode="&#xd1;" horiz-adv-x="656" 
d="M83 0v654h119l204 -368l67 -139h4q-1 17 -5.5 66t-7 86.5t-2.5 70.5v284h111v-654h-119l-204 368l-67 139h-4q1 -20 5.5 -67t7 -84t2.5 -70v-286h-111zM403 700q-31 0 -58.5 16t-48 32t-36.5 16q-36 0 -42 -57l-76 6q4 65 34.5 99t80.5 34q31 0 58.5 -16t48 -32t36.5 -16
q35 0 42 58l76 -6q-4 -65 -34.5 -99.5t-80.5 -34.5z" />
    <glyph glyph-name="Ograve" unicode="&#xd2;" horiz-adv-x="674" 
d="M337 -12q-129 0 -208.5 92.5t-79.5 249.5q0 156 79.5 246t208.5 90q130 0 209.5 -90t79.5 -246q0 -157 -79.5 -249.5t-209.5 -92.5zM337 89q77 0 123 65.5t46 175.5q0 109 -45.5 172t-123.5 63t-123.5 -63t-45.5 -172q0 -110 46 -175.5t123 -65.5zM351 688l-168 117
l62 76l157 -135z" />
    <glyph glyph-name="Oacute" unicode="&#xd3;" horiz-adv-x="674" 
d="M337 -12q-129 0 -208.5 92.5t-79.5 249.5q0 156 79.5 246t208.5 90q130 0 209.5 -90t79.5 -246q0 -157 -79.5 -249.5t-209.5 -92.5zM337 89q77 0 123 65.5t46 175.5q0 109 -45.5 172t-123.5 63t-123.5 -63t-45.5 -172q0 -110 46 -175.5t123 -65.5zM323 688l-51 58
l157 135l62 -76z" />
    <glyph glyph-name="Ocircumflex" unicode="&#xd4;" horiz-adv-x="674" 
d="M337 -12q-129 0 -208.5 92.5t-79.5 249.5q0 156 79.5 246t208.5 90q130 0 209.5 -90t79.5 -246q0 -157 -79.5 -249.5t-209.5 -92.5zM337 89q77 0 123 65.5t46 175.5q0 109 -45.5 172t-123.5 63t-123.5 -63t-45.5 -172q0 -110 46 -175.5t123 -65.5zM178 725l97 111h124
l97 -111l-50 -33l-107 88h-4l-107 -88z" />
    <glyph glyph-name="Otilde" unicode="&#xd5;" horiz-adv-x="674" 
d="M337 -12q-129 0 -208.5 92.5t-79.5 249.5q0 156 79.5 246t208.5 90q130 0 209.5 -90t79.5 -246q0 -157 -79.5 -249.5t-209.5 -92.5zM337 89q77 0 123 65.5t46 175.5q0 109 -45.5 172t-123.5 63t-123.5 -63t-45.5 -172q0 -110 46 -175.5t123 -65.5zM410 700
q-31 0 -58.5 16t-48 32t-36.5 16q-36 0 -42 -57l-76 6q4 65 34.5 99t80.5 34q31 0 58.5 -16t48 -32t36.5 -16q35 0 42 58l76 -6q-4 -65 -34.5 -99.5t-80.5 -34.5z" />
    <glyph glyph-name="Odieresis" unicode="&#xd6;" horiz-adv-x="674" 
d="M337 -12q-129 0 -208.5 92.5t-79.5 249.5q0 156 79.5 246t208.5 90q130 0 209.5 -90t79.5 -246q0 -157 -79.5 -249.5t-209.5 -92.5zM337 89q77 0 123 65.5t46 175.5q0 109 -45.5 172t-123.5 63t-123.5 -63t-45.5 -172q0 -110 46 -175.5t123 -65.5zM230 708
q-26 0 -42.5 16.5t-16.5 42.5t16.5 43t42.5 17t43 -17t17 -43t-17 -42.5t-43 -16.5zM444 708q-26 0 -43 16.5t-17 42.5t17 43t43 17t42.5 -17t16.5 -43t-16.5 -42.5t-42.5 -16.5z" />
    <glyph glyph-name="multiply" unicode="&#xd7;" horiz-adv-x="513" 
d="M108 119l-59 60l148 150l-148 151l59 60l148 -152l149 152l59 -60l-149 -151l149 -150l-59 -60l-149 151z" />
    <glyph glyph-name="Oslash" unicode="&#xd8;" horiz-adv-x="674" 
d="M339 -12q-100 0 -170 56l-63 -80l-61 48l70 89q-64 89 -64 229q0 156 79.5 246t208.5 90q103 0 175 -57l64 81l62 -48l-72 -91q60 -88 60 -221q0 -157 -79.5 -249.5t-209.5 -92.5zM170 330q0 -74 22 -131l254 323q-43 43 -107 43q-78 0 -123.5 -63t-45.5 -172zM339 89
q77 0 123 65.5t46 175.5q0 68 -19 120l-252 -320q41 -41 102 -41z" />
    <glyph glyph-name="Ugrave" unicode="&#xd9;" horiz-adv-x="655" 
d="M328 -12q-248 0 -248 299v367h116v-376q0 -189 132 -189q136 0 136 189v376h111v-367q0 -299 -247 -299zM342 688l-168 117l62 76l157 -135z" />
    <glyph glyph-name="Uacute" unicode="&#xda;" horiz-adv-x="655" 
d="M328 -12q-248 0 -248 299v367h116v-376q0 -189 132 -189q136 0 136 189v376h111v-367q0 -299 -247 -299zM314 688l-51 58l157 135l62 -76z" />
    <glyph glyph-name="Ucircumflex" unicode="&#xdb;" horiz-adv-x="655" 
d="M328 -12q-248 0 -248 299v367h116v-376q0 -189 132 -189q136 0 136 189v376h111v-367q0 -299 -247 -299zM169 725l97 111h124l97 -111l-50 -33l-107 88h-4l-107 -88z" />
    <glyph glyph-name="Udieresis" unicode="&#xdc;" horiz-adv-x="655" 
d="M328 -12q-248 0 -248 299v367h116v-376q0 -189 132 -189q136 0 136 189v376h111v-367q0 -299 -247 -299zM221 708q-26 0 -42.5 16.5t-16.5 42.5t16.5 43t42.5 17t43 -17t17 -43t-17 -42.5t-43 -16.5zM435 708q-26 0 -43 16.5t-17 42.5t17 43t43 17t42.5 -17t16.5 -43
t-16.5 -42.5t-42.5 -16.5z" />
    <glyph glyph-name="Yacute" unicode="&#xdd;" horiz-adv-x="501" 
d="M192 0v243l-196 411h124l71 -167q30 -77 58 -144h4q54 129 60 144l71 167h121l-197 -411v-243h-116zM236 688l-51 58l157 135l62 -76z" />
    <glyph glyph-name="Thorn" unicode="&#xde;" horiz-adv-x="600" 
d="M83 0v654h116v-104h104q249 0 249 -202q0 -105 -68.5 -158.5t-180.5 -53.5h-104v-136h-116zM199 229h95q144 0 144 119q0 59 -35 84t-109 25h-95v-228z" />
    <glyph glyph-name="germandbls" unicode="&#xdf;" horiz-adv-x="604" 
d="M404 -12q-73 0 -146 47l42 79q51 -39 101 -39q32 0 50.5 18.5t18.5 45.5q0 26 -19 45.5t-46.5 34t-55 30.5t-46.5 43.5t-19 64.5q0 42 39.5 96.5t39.5 93.5q0 35 -19 56.5t-54 21.5q-50 0 -76.5 -36.5t-26.5 -104.5v-484h-114v501q0 98 56 156.5t161 58.5
q87 0 135.5 -45.5t48.5 -110.5q0 -33 -13 -62.5t-29 -46.5t-29 -38.5t-13 -41.5q0 -22 19.5 -39t47 -31t54.5 -31.5t46.5 -49.5t19.5 -76q0 -67 -46.5 -111.5t-126.5 -44.5z" />
    <glyph glyph-name="agrave" unicode="&#xe0;" horiz-adv-x="516" 
d="M192 -12q-65 0 -105 40t-40 104q0 79 69 122.5t220 59.5q-4 96 -90 96q-57 0 -138 -48l-42 77q102 64 202 64q91 0 137 -54t46 -158v-291h-95l-8 54h-4q-78 -66 -152 -66zM229 78q48 0 107 54v110q-96 -12 -137 -37t-41 -64q0 -63 71 -63zM271 573l-170 155l80 76
l147 -174z" />
    <glyph glyph-name="aacute" unicode="&#xe1;" horiz-adv-x="516" 
d="M192 -12q-65 0 -105 40t-40 104q0 79 69 122.5t220 59.5q-4 96 -90 96q-57 0 -138 -48l-42 77q102 64 202 64q91 0 137 -54t46 -158v-291h-95l-8 54h-4q-78 -66 -152 -66zM229 78q48 0 107 54v110q-96 -12 -137 -37t-41 -64q0 -63 71 -63zM267 573l-57 57l147 174l80 -76
z" />
    <glyph glyph-name="acircumflex" unicode="&#xe2;" horiz-adv-x="516" 
d="M192 -12q-65 0 -105 40t-40 104q0 79 69 122.5t220 59.5q-4 96 -90 96q-57 0 -138 -48l-42 77q102 64 202 64q91 0 137 -54t46 -158v-291h-95l-8 54h-4q-78 -66 -152 -66zM229 78q48 0 107 54v110q-96 -12 -137 -37t-41 -64q0 -63 71 -63zM100 607l111 135h116l111 -135
l-45 -43l-122 103h-4l-122 -103z" />
    <glyph glyph-name="atilde" unicode="&#xe3;" horiz-adv-x="516" 
d="M192 -12q-65 0 -105 40t-40 104q0 79 69 122.5t220 59.5q-4 96 -90 96q-57 0 -138 -48l-42 77q102 64 202 64q91 0 137 -54t46 -158v-291h-95l-8 54h-4q-78 -66 -152 -66zM229 78q48 0 107 54v110q-96 -12 -137 -37t-41 -64q0 -63 71 -63zM338 575q-29 0 -54.5 18.5
t-46 37t-35.5 18.5q-35 0 -41 -67l-74 4q5 144 113 144q29 0 54.5 -18.5t46 -37t36.5 -18.5q34 0 40 67l74 -4q-5 -144 -113 -144z" />
    <glyph glyph-name="adieresis" unicode="&#xe4;" horiz-adv-x="516" 
d="M192 -12q-65 0 -105 40t-40 104q0 79 69 122.5t220 59.5q-4 96 -90 96q-57 0 -138 -48l-42 77q102 64 202 64q91 0 137 -54t46 -158v-291h-95l-8 54h-4q-78 -66 -152 -66zM229 78q48 0 107 54v110q-96 -12 -137 -37t-41 -64q0 -63 71 -63zM166 578q-26 0 -43.5 17.5
t-17.5 43.5t17.5 43.5t43.5 17.5q27 0 44 -17.5t17 -43.5t-17 -43.5t-44 -17.5zM372 578q-27 0 -44 17.5t-17 43.5t17 43.5t44 17.5q26 0 43.5 -17.5t17.5 -43.5t-17.5 -43.5t-43.5 -17.5z" />
    <glyph glyph-name="aring" unicode="&#xe5;" horiz-adv-x="516" 
d="M192 -12q-65 0 -105 40t-40 104q0 79 69 122.5t220 59.5q-4 96 -90 96q-57 0 -138 -48l-42 77q102 64 202 64q91 0 137 -54t46 -158v-291h-95l-8 54h-4q-78 -66 -152 -66zM229 78q48 0 107 54v110q-96 -12 -137 -37t-41 -64q0 -63 71 -63zM269 559q-56 0 -88.5 28.5
t-32.5 72.5q0 45 32.5 73.5t88.5 28.5t88.5 -28.5t32.5 -73.5q0 -44 -32.5 -72.5t-88.5 -28.5zM269 605q21 0 35.5 15.5t14.5 39.5q0 25 -14.5 40.5t-35.5 15.5t-35.5 -15.5t-14.5 -40.5q0 -24 14.5 -39.5t35.5 -15.5z" />
    <glyph glyph-name="ae" unicode="&#xe6;" horiz-adv-x="785" 
d="M198 -12q-65 0 -105.5 40t-40.5 104q0 79 68.5 122.5t217.5 59.5q-4 96 -88 96q-57 0 -136 -48l-42 77q102 64 193 64q99 0 139 -89q64 89 153 89q91 0 141 -64.5t50 -170.5q0 -34 -5 -54h-300q6 -62 43.5 -98t91.5 -36q52 0 111 38l41 -77q-80 -53 -167 -53
q-101 0 -171 84q-98 -84 -194 -84zM234 78q62 0 120 58q-14 33 -16 83l-2 23q-172 -23 -172 -101q0 -63 70 -63zM443 287h206q0 60 -24.5 93.5t-71.5 33.5q-43 0 -73 -33.5t-37 -93.5z" />
    <glyph glyph-name="ccedilla" unicode="&#xe7;" horiz-adv-x="462" 
d="M183 -233l-10 50q60 4 83 14.5t23 32.5q0 35 -77 45l40 81q-90 12 -145.5 79.5t-55.5 175.5q0 118 71.5 188t174.5 70q80 0 144 -55l-56 -75q-41 36 -82 36q-60 0 -97 -45t-37 -119q0 -73 36.5 -118t94.5 -45q50 0 101 42l47 -76q-55 -48 -126 -57l-23 -53
q38 -9 56.5 -26t18.5 -47q0 -90 -181 -98z" />
    <glyph glyph-name="egrave" unicode="&#xe8;" horiz-adv-x="507" 
d="M283 -12q-105 0 -173.5 69.5t-68.5 187.5q0 115 67.5 186.5t158.5 71.5q97 0 150 -63.5t53 -169.5q0 -36 -5 -56h-312q7 -65 46 -101t99 -36q58 0 114 36l39 -72q-80 -53 -168 -53zM152 292h218q0 58 -25.5 90t-74.5 32q-45 0 -78 -32t-40 -90zM269 573l-170 155l80 76
l147 -174z" />
    <glyph glyph-name="eacute" unicode="&#xe9;" horiz-adv-x="507" 
d="M283 -12q-105 0 -173.5 69.5t-68.5 187.5q0 115 67.5 186.5t158.5 71.5q97 0 150 -63.5t53 -169.5q0 -36 -5 -56h-312q7 -65 46 -101t99 -36q58 0 114 36l39 -72q-80 -53 -168 -53zM152 292h218q0 58 -25.5 90t-74.5 32q-45 0 -78 -32t-40 -90zM265 573l-57 57l147 174
l80 -76z" />
    <glyph glyph-name="ecircumflex" unicode="&#xea;" horiz-adv-x="507" 
d="M283 -12q-105 0 -173.5 69.5t-68.5 187.5q0 115 67.5 186.5t158.5 71.5q97 0 150 -63.5t53 -169.5q0 -36 -5 -56h-312q7 -65 46 -101t99 -36q58 0 114 36l39 -72q-80 -53 -168 -53zM152 292h218q0 58 -25.5 90t-74.5 32q-45 0 -78 -32t-40 -90zM98 607l111 135h116
l111 -135l-45 -43l-122 103h-4l-122 -103z" />
    <glyph glyph-name="edieresis" unicode="&#xeb;" horiz-adv-x="507" 
d="M283 -12q-105 0 -173.5 69.5t-68.5 187.5q0 115 67.5 186.5t158.5 71.5q97 0 150 -63.5t53 -169.5q0 -36 -5 -56h-312q7 -65 46 -101t99 -36q58 0 114 36l39 -72q-80 -53 -168 -53zM152 292h218q0 58 -25.5 90t-74.5 32q-45 0 -78 -32t-40 -90zM164 578q-26 0 -43.5 17.5
t-17.5 43.5t17.5 43.5t43.5 17.5q27 0 44 -17.5t17 -43.5t-17 -43.5t-44 -17.5zM370 578q-27 0 -44 17.5t-17 43.5t17 43.5t44 17.5q26 0 43.5 -17.5t17.5 -43.5t-17.5 -43.5t-43.5 -17.5z" />
    <glyph glyph-name="igrave" unicode="&#xec;" horiz-adv-x="262" 
d="M73 0v491h115v-491h-115zM133 573l-170 155l80 76l147 -174z" />
    <glyph glyph-name="iacute" unicode="&#xed;" horiz-adv-x="262" 
d="M73 0v491h115v-491h-115zM129 573l-57 57l147 174l80 -76z" />
    <glyph glyph-name="icircumflex" unicode="&#xee;" horiz-adv-x="262" 
d="M73 0v491h115v-491h-115zM-38 607l111 135h116l111 -135l-45 -43l-122 103h-4l-122 -103z" />
    <glyph glyph-name="idieresis" unicode="&#xef;" horiz-adv-x="262" 
d="M73 0v491h115v-491h-115zM28 578q-26 0 -43.5 17.5t-17.5 43.5t17.5 43.5t43.5 17.5q27 0 44 -17.5t17 -43.5t-17 -43.5t-44 -17.5zM234 578q-27 0 -44 17.5t-17 43.5t17 43.5t44 17.5q26 0 43.5 -17.5t17.5 -43.5t-17.5 -43.5t-43.5 -17.5z" />
    <glyph glyph-name="eth" unicode="&#xf0;" horiz-adv-x="552" 
d="M271 -12q-93 0 -158 65.5t-65 171.5q0 102 59.5 164t144.5 62q76 0 120 -54q-25 93 -96 162l-142 -72l-31 53l122 62q-38 28 -101 62l51 71q83 -43 138 -88l143 73l31 -54l-124 -63q135 -137 135 -341q0 -122 -62 -198t-165 -76zM274 82q55 0 85 45.5t30 128.5
q0 18 -2 50q-46 58 -114 58q-55 0 -87 -37.5t-32 -101.5q0 -65 34.5 -104t85.5 -39z" />
    <glyph glyph-name="ntilde" unicode="&#xf1;" horiz-adv-x="560" 
d="M73 0v491h95l8 -66h4q80 78 161 78q151 0 151 -195v-308h-115v293q0 60 -18 85.5t-59 25.5q-30 0 -54 -14t-58 -47v-343h-115zM369 575q-29 0 -54.5 18.5t-46 37t-35.5 18.5q-35 0 -41 -67l-74 4q5 144 113 144q29 0 54.5 -18.5t46 -37t36.5 -18.5q34 0 40 67l74 -4
q-5 -144 -113 -144z" />
    <glyph glyph-name="ograve" unicode="&#xf2;" horiz-adv-x="549" 
d="M274 -12q-96 0 -164.5 70t-68.5 187q0 118 68.5 188t164.5 70q97 0 165.5 -70t68.5 -188t-68.5 -187.5t-165.5 -69.5zM274 82q54 0 85 44.5t31 118.5q0 75 -31 119.5t-85 44.5t-84.5 -44.5t-30.5 -119.5q0 -74 31 -118.5t84 -44.5zM276 573l-170 155l80 76l147 -174z" />
    <glyph glyph-name="oacute" unicode="&#xf3;" horiz-adv-x="549" 
d="M274 -12q-96 0 -164.5 70t-68.5 187q0 118 68.5 188t164.5 70q97 0 165.5 -70t68.5 -188t-68.5 -187.5t-165.5 -69.5zM274 82q54 0 85 44.5t31 118.5q0 75 -31 119.5t-85 44.5t-84.5 -44.5t-30.5 -119.5q0 -74 31 -118.5t84 -44.5zM272 573l-57 57l147 174l80 -76z" />
    <glyph glyph-name="ocircumflex" unicode="&#xf4;" horiz-adv-x="549" 
d="M274 -12q-96 0 -164.5 70t-68.5 187q0 118 68.5 188t164.5 70q97 0 165.5 -70t68.5 -188t-68.5 -187.5t-165.5 -69.5zM274 82q54 0 85 44.5t31 118.5q0 75 -31 119.5t-85 44.5t-84.5 -44.5t-30.5 -119.5q0 -74 31 -118.5t84 -44.5zM105 607l111 135h116l111 -135l-45 -43
l-122 103h-4l-122 -103z" />
    <glyph glyph-name="otilde" unicode="&#xf5;" horiz-adv-x="549" 
d="M274 -12q-96 0 -164.5 70t-68.5 187q0 118 68.5 188t164.5 70q97 0 165.5 -70t68.5 -188t-68.5 -187.5t-165.5 -69.5zM274 82q54 0 85 44.5t31 118.5q0 75 -31 119.5t-85 44.5t-84.5 -44.5t-30.5 -119.5q0 -74 31 -118.5t84 -44.5zM343 575q-29 0 -54.5 18.5t-46 37
t-35.5 18.5q-35 0 -41 -67l-74 4q5 144 113 144q29 0 54.5 -18.5t46 -37t36.5 -18.5q34 0 40 67l74 -4q-5 -144 -113 -144z" />
    <glyph glyph-name="odieresis" unicode="&#xf6;" horiz-adv-x="549" 
d="M274 -12q-96 0 -164.5 70t-68.5 187q0 118 68.5 188t164.5 70q97 0 165.5 -70t68.5 -188t-68.5 -187.5t-165.5 -69.5zM274 82q54 0 85 44.5t31 118.5q0 75 -31 119.5t-85 44.5t-84.5 -44.5t-30.5 -119.5q0 -74 31 -118.5t84 -44.5zM171 578q-26 0 -43.5 17.5t-17.5 43.5
t17.5 43.5t43.5 17.5q27 0 44 -17.5t17 -43.5t-17 -43.5t-44 -17.5zM377 578q-27 0 -44 17.5t-17 43.5t17 43.5t44 17.5q26 0 43.5 -17.5t17.5 -43.5t-17.5 -43.5t-43.5 -17.5z" />
    <glyph glyph-name="divide" unicode="&#xf7;" horiz-adv-x="513" 
d="M34 288v84h445v-84h-445zM256 84q-29 0 -48.5 18.5t-19.5 47.5q0 28 19.5 46.5t48.5 18.5t48.5 -18.5t19.5 -46.5q0 -29 -19.5 -47.5t-48.5 -18.5zM256 444q-29 0 -48.5 18.5t-19.5 47.5q0 28 19.5 46.5t48.5 18.5t48.5 -18.5t19.5 -46.5q0 -29 -19.5 -47.5t-48.5 -18.5z
" />
    <glyph glyph-name="oslash" unicode="&#xf8;" horiz-adv-x="549" 
d="M274 -12q-77 0 -136 44l-46 -56l-46 36l50 61q-55 70 -55 172q0 118 68.5 188t164.5 70q77 0 136 -44l47 57l46 -36l-50 -62q55 -70 55 -173q0 -118 -68.5 -187.5t-165.5 -69.5zM153 251q0 -52 14 -91l182 224q-31 29 -75 29q-54 0 -87.5 -45t-33.5 -117zM274 78
q54 0 88 44.5t34 116.5q0 53 -14 92l-183 -223q30 -30 75 -30z" />
    <glyph glyph-name="ugrave" unicode="&#xf9;" horiz-adv-x="556" 
d="M219 -12q-151 0 -151 195v308h115v-293q0 -60 18 -85.5t58 -25.5q32 0 56.5 15.5t52.5 52.5v336h115v-491h-94l-9 72h-3q-71 -84 -158 -84zM281 573l-170 155l80 76l147 -174z" />
    <glyph glyph-name="uacute" unicode="&#xfa;" horiz-adv-x="556" 
d="M219 -12q-151 0 -151 195v308h115v-293q0 -60 18 -85.5t58 -25.5q32 0 56.5 15.5t52.5 52.5v336h115v-491h-94l-9 72h-3q-71 -84 -158 -84zM277 573l-57 57l147 174l80 -76z" />
    <glyph glyph-name="ucircumflex" unicode="&#xfb;" horiz-adv-x="556" 
d="M219 -12q-151 0 -151 195v308h115v-293q0 -60 18 -85.5t58 -25.5q32 0 56.5 15.5t52.5 52.5v336h115v-491h-94l-9 72h-3q-71 -84 -158 -84zM110 607l111 135h116l111 -135l-45 -43l-122 103h-4l-122 -103z" />
    <glyph glyph-name="udieresis" unicode="&#xfc;" horiz-adv-x="556" 
d="M219 -12q-151 0 -151 195v308h115v-293q0 -60 18 -85.5t58 -25.5q32 0 56.5 15.5t52.5 52.5v336h115v-491h-94l-9 72h-3q-71 -84 -158 -84zM176 578q-26 0 -43.5 17.5t-17.5 43.5t17.5 43.5t43.5 17.5q27 0 44 -17.5t17 -43.5t-17 -43.5t-44 -17.5zM382 578
q-27 0 -44 17.5t-17 43.5t17 43.5t44 17.5q26 0 43.5 -17.5t17.5 -43.5t-17.5 -43.5t-43.5 -17.5z" />
    <glyph glyph-name="yacute" unicode="&#xfd;" horiz-adv-x="495" 
d="M106 -202q-34 0 -64 10l21 90q21 -7 35 -7q71 0 98 84l9 31l-193 485h117l85 -241q7 -21 21 -67.5t22 -70.5h4q28 105 37 138l74 241h111l-178 -513q-33 -90 -78 -135t-121 -45zM253 573l-57 57l147 174l80 -76z" />
    <glyph glyph-name="thorn" unicode="&#xfe;" horiz-adv-x="564" 
d="M73 -194v900h115v-182l-2 -77q68 56 136 56q94 0 146.5 -67.5t52.5 -182.5q0 -121 -62 -193t-148 -72q-64 0 -125 50l2 -78v-154h-115zM287 83q51 0 83 44t32 125q0 156 -106 156q-52 0 -108 -55v-229q49 -41 99 -41z" />
    <glyph glyph-name="ydieresis" unicode="&#xff;" horiz-adv-x="495" 
d="M106 -202q-34 0 -64 10l21 90q21 -7 35 -7q71 0 98 84l9 31l-193 485h117l85 -241q7 -21 21 -67.5t22 -70.5h4q28 105 37 138l74 241h111l-178 -513q-33 -90 -78 -135t-121 -45zM152 578q-26 0 -43.5 17.5t-17.5 43.5t17.5 43.5t43.5 17.5q27 0 44 -17.5t17 -43.5
t-17 -43.5t-44 -17.5zM358 578q-27 0 -44 17.5t-17 43.5t17 43.5t44 17.5q26 0 43.5 -17.5t17.5 -43.5t-17.5 -43.5t-43.5 -17.5z" />
    <glyph glyph-name="Amacron" unicode="&#x100;" horiz-adv-x="558" 
d="M217 348l-23 -80h167l-23 80q-15 49 -59 216h-4q-33 -134 -58 -216zM-2 0l213 654h136l213 -654h-122l-51 177h-220l-51 -177h-118zM134 728v76h286v-76h-286z" />
    <glyph glyph-name="amacron" unicode="&#x101;" horiz-adv-x="516" 
d="M192 -12q-65 0 -105 40t-40 104q0 79 69 122.5t220 59.5q-4 96 -90 96q-57 0 -138 -48l-42 77q102 64 202 64q91 0 137 -54t46 -158v-291h-95l-8 54h-4q-78 -66 -152 -66zM229 78q48 0 107 54v110q-96 -12 -137 -37t-41 -64q0 -63 71 -63zM129 596v76h280v-76h-280z" />
    <glyph glyph-name="Abreve" unicode="&#x102;" horiz-adv-x="558" 
d="M217 348l-23 -80h167l-23 80q-15 49 -59 216h-4q-33 -134 -58 -216zM-2 0l213 654h136l213 -654h-122l-51 177h-220l-51 -177h-118zM277 701q-70 0 -109 35.5t-46 97.5l66 11q6 -34 29 -54.5t60 -20.5t60 20.5t29 54.5l66 -11q-7 -62 -46 -97.5t-109 -35.5z" />
    <glyph glyph-name="abreve" unicode="&#x103;" horiz-adv-x="516" 
d="M192 -12q-65 0 -105 40t-40 104q0 79 69 122.5t220 59.5q-4 96 -90 96q-57 0 -138 -48l-42 77q102 64 202 64q91 0 137 -54t46 -158v-291h-95l-8 54h-4q-78 -66 -152 -66zM229 78q48 0 107 54v110q-96 -12 -137 -37t-41 -64q0 -63 71 -63zM269 571q-78 0 -118.5 44
t-44.5 111l68 11q6 -39 30 -65.5t65 -26.5t65 26.5t30 65.5l68 -11q-4 -67 -44.5 -111t-118.5 -44z" />
    <glyph glyph-name="Aogonek" unicode="&#x104;" horiz-adv-x="558" 
d="M494 -218q-45 0 -75 24t-30 67q0 39 24 73.5t54 53.5h-29l-51 177h-220l-51 -177h-118l213 654h136l213 -654q-36 -9 -60.5 -38t-24.5 -60q0 -20 12.5 -31t30.5 -11q23 0 40 14l28 -60q-39 -32 -92 -32zM217 348l-23 -80h167l-23 80q-15 49 -59 216h-4q-33 -134 -58 -216
z" />
    <glyph glyph-name="aogonek" unicode="&#x105;" horiz-adv-x="516" 
d="M382 -208q-43 0 -71 23t-28 65q0 38 23 70t52 51l-10 53h-4q-78 -66 -152 -66q-65 0 -105 40t-40 104q0 79 69 122.5t220 59.5q-4 96 -90 96q-57 0 -138 -48l-42 77q102 64 202 64q91 0 137 -54t46 -158v-291q-43 -14 -65 -40.5t-22 -54.5q0 -21 12.5 -31.5t31.5 -10.5
q20 0 38 13l26 -54q-38 -30 -90 -30zM229 78q48 0 107 54v110q-96 -12 -137 -37t-41 -64q0 -63 71 -63z" />
    <glyph glyph-name="Cacute" unicode="&#x106;" horiz-adv-x="576" 
d="M344 -12q-128 0 -211.5 89.5t-83.5 247.5q0 156 85.5 248.5t213.5 92.5q112 0 189 -83l-62 -75q-57 57 -124 57q-81 0 -132 -64t-51 -173q0 -111 48.5 -175t131.5 -64q78 0 140 67l62 -73q-83 -95 -206 -95zM323 688l-51 58l157 135l62 -76z" />
    <glyph glyph-name="cacute" unicode="&#x107;" horiz-adv-x="462" 
d="M278 -12q-103 0 -170 69t-67 188q0 118 71.5 188t174.5 70q80 0 144 -55l-56 -75q-41 36 -82 36q-60 0 -97 -45t-37 -119q0 -73 36.5 -118t94.5 -45q50 0 101 42l47 -76q-69 -60 -160 -60zM283 573l-57 57l147 174l80 -76z" />
    <glyph glyph-name="Ccircumflex" unicode="&#x108;" horiz-adv-x="576" 
d="M344 -12q-128 0 -211.5 89.5t-83.5 247.5q0 156 85.5 248.5t213.5 92.5q112 0 189 -83l-62 -75q-57 57 -124 57q-81 0 -132 -64t-51 -173q0 -111 48.5 -175t131.5 -64q78 0 140 67l62 -73q-83 -95 -206 -95zM178 725l97 111h124l97 -111l-50 -33l-107 88h-4l-107 -88z
" />
    <glyph glyph-name="ccircumflex" unicode="&#x109;" horiz-adv-x="462" 
d="M278 -12q-103 0 -170 69t-67 188q0 118 71.5 188t174.5 70q80 0 144 -55l-56 -75q-41 36 -82 36q-60 0 -97 -45t-37 -119q0 -73 36.5 -118t94.5 -45q50 0 101 42l47 -76q-69 -60 -160 -60zM116 607l111 135h116l111 -135l-45 -43l-122 103h-4l-122 -103z" />
    <glyph glyph-name="Cdotaccent" unicode="&#x10a;" horiz-adv-x="576" 
d="M344 -12q-128 0 -211.5 89.5t-83.5 247.5q0 156 85.5 248.5t213.5 92.5q112 0 189 -83l-62 -75q-57 57 -124 57q-81 0 -132 -64t-51 -173q0 -111 48.5 -175t131.5 -64q78 0 140 67l62 -73q-83 -95 -206 -95zM337 707q-31 0 -51 18.5t-20 47.5q0 28 20 46.5t51 18.5
t51 -18.5t20 -46.5q0 -29 -20 -47.5t-51 -18.5z" />
    <glyph glyph-name="cdotaccent" unicode="&#x10b;" horiz-adv-x="462" 
d="M278 -12q-103 0 -170 69t-67 188q0 118 71.5 188t174.5 70q80 0 144 -55l-56 -75q-41 36 -82 36q-60 0 -97 -45t-37 -119q0 -73 36.5 -118t94.5 -45q50 0 101 42l47 -76q-69 -60 -160 -60zM285 577q-30 0 -49 18.5t-19 47.5t19 47t49 18t49 -18t19 -47t-19 -47.5
t-49 -18.5z" />
    <glyph glyph-name="Ccaron" unicode="&#x10c;" horiz-adv-x="576" 
d="M344 -12q-128 0 -211.5 89.5t-83.5 247.5q0 156 85.5 248.5t213.5 92.5q112 0 189 -83l-62 -75q-57 57 -124 57q-81 0 -132 -64t-51 -173q0 -111 48.5 -175t131.5 -64q78 0 140 67l62 -73q-83 -95 -206 -95zM275 704l-97 112l50 32l107 -88h4l107 88l50 -32l-97 -112
h-124z" />
    <glyph glyph-name="ccaron" unicode="&#x10d;" horiz-adv-x="462" 
d="M278 -12q-103 0 -170 69t-67 188q0 118 71.5 188t174.5 70q80 0 144 -55l-56 -75q-41 36 -82 36q-60 0 -97 -45t-37 -119q0 -73 36.5 -118t94.5 -45q50 0 101 42l47 -76q-69 -60 -160 -60zM227 576l-111 135l45 42l122 -102h4l122 102l45 -42l-111 -135h-116z" />
    <glyph glyph-name="Dcaron" unicode="&#x10e;" horiz-adv-x="625" 
d="M83 0v654h175q152 0 235 -82t83 -242q0 -161 -82 -245.5t-230 -84.5h-181zM199 94h51q207 0 207 236q0 230 -207 230h-51v-466zM251 704l-97 112l50 32l107 -88h4l107 88l50 -32l-97 -112h-124z" />
    <glyph glyph-name="dcaron" unicode="&#x10f;" horiz-adv-x="594" 
d="M245 -12q-93 0 -147.5 68t-54.5 189q0 115 62 186.5t146 71.5q67 0 129 -54l-4 79v178h115v-706h-95l-8 53h-4q-65 -65 -139 -65zM273 83q55 0 103 55v229q-46 41 -100 41q-49 0 -81.5 -43.5t-32.5 -118.5q0 -79 29 -121t82 -42zM541 548l-5 217h77l-1 -63l-19 -154h-52z
" />
    <glyph glyph-name="Dcroat" unicode="&#x110;" horiz-adv-x="649" 
d="M30 311v55l77 4v284h175q152 0 235 -82t83 -242q0 -161 -82 -245.5t-230 -84.5h-181v311h-77zM223 94h51q207 0 207 236q0 230 -207 230h-51v-190h137v-59h-137v-217z" />
    <glyph glyph-name="dcroat" unicode="&#x111;" horiz-adv-x="564" 
d="M245 -12q-93 0 -147.5 63.5t-54.5 172.5q0 103 62 169t146 66q67 0 129 -54l-4 79v80h-156v59h156v83h115v-83h70v-54l-70 -5v-564h-97l-8 50h-3q-62 -62 -138 -62zM273 83q55 0 103 55v185q-46 41 -100 41q-48 0 -81 -38t-33 -100q0 -68 29 -105.5t82 -37.5z" />
    <glyph glyph-name="Emacron" unicode="&#x112;" horiz-adv-x="538" 
d="M83 0v654h394v-98h-278v-167h235v-98h-235v-193h288v-98h-404zM143 728v76h286v-76h-286z" />
    <glyph glyph-name="emacron" unicode="&#x113;" horiz-adv-x="507" 
d="M283 -12q-105 0 -173.5 69.5t-68.5 187.5q0 115 67.5 186.5t158.5 71.5q97 0 150 -63.5t53 -169.5q0 -36 -5 -56h-312q7 -65 46 -101t99 -36q58 0 114 36l39 -72q-80 -53 -168 -53zM152 292h218q0 58 -25.5 90t-74.5 32q-45 0 -78 -32t-40 -90zM127 596v76h280v-76h-280z
" />
    <glyph glyph-name="Ebreve" unicode="&#x114;" horiz-adv-x="538" 
d="M83 0v654h394v-98h-278v-167h235v-98h-235v-193h288v-98h-404zM286 701q-70 0 -109 35.5t-46 97.5l66 11q6 -34 29 -54.5t60 -20.5t60 20.5t29 54.5l66 -11q-7 -62 -46 -97.5t-109 -35.5z" />
    <glyph glyph-name="ebreve" unicode="&#x115;" horiz-adv-x="507" 
d="M283 -12q-105 0 -173.5 69.5t-68.5 187.5q0 115 67.5 186.5t158.5 71.5q97 0 150 -63.5t53 -169.5q0 -36 -5 -56h-312q7 -65 46 -101t99 -36q58 0 114 36l39 -72q-80 -53 -168 -53zM152 292h218q0 58 -25.5 90t-74.5 32q-45 0 -78 -32t-40 -90zM267 571q-78 0 -118.5 44
t-44.5 111l68 11q6 -39 30 -65.5t65 -26.5t65 26.5t30 65.5l68 -11q-4 -67 -44.5 -111t-118.5 -44z" />
    <glyph glyph-name="Edotaccent" unicode="&#x116;" horiz-adv-x="538" 
d="M83 0v654h394v-98h-278v-167h235v-98h-235v-193h288v-98h-404zM286 707q-31 0 -51 18.5t-20 47.5q0 28 20 46.5t51 18.5t51 -18.5t20 -46.5q0 -29 -20 -47.5t-51 -18.5z" />
    <glyph glyph-name="edotaccent" unicode="&#x117;" horiz-adv-x="507" 
d="M283 -12q-105 0 -173.5 69.5t-68.5 187.5q0 115 67.5 186.5t158.5 71.5q97 0 150 -63.5t53 -169.5q0 -36 -5 -56h-312q7 -65 46 -101t99 -36q58 0 114 36l39 -72q-80 -53 -168 -53zM152 292h218q0 58 -25.5 90t-74.5 32q-45 0 -78 -32t-40 -90zM267 577q-30 0 -49 18.5
t-19 47.5t19 47t49 18t49 -18t19 -47t-19 -47.5t-49 -18.5z" />
    <glyph glyph-name="Eogonek" unicode="&#x118;" horiz-adv-x="538" 
d="M412 -218q-45 0 -75 24t-30 67q0 40 23 74t54 53h-301v654h394v-98h-278v-167h235v-98h-235v-193h288v-98h-5q-34 -3 -61 -32.5t-27 -65.5q0 -20 13 -31t31 -11q19 0 38 14l29 -60q-41 -32 -93 -32z" />
    <glyph glyph-name="eogonek" unicode="&#x119;" horiz-adv-x="507" 
d="M360 -208q-43 0 -70 23t-27 65q0 62 58 113q-19 -5 -38 -5q-105 0 -173.5 69.5t-68.5 187.5q0 115 67.5 186.5t158.5 71.5q97 0 150 -63.5t53 -169.5q0 -36 -5 -56h-312q7 -65 46 -101t99 -36q58 0 114 36l39 -72q-63 -44 -86 -74t-23 -62q0 -20 12.5 -31t32.5 -11
q19 0 37 13l26 -54q-37 -30 -90 -30zM152 292h218q0 58 -25.5 90t-74.5 32q-45 0 -78 -32t-40 -90z" />
    <glyph glyph-name="Ecaron" unicode="&#x11a;" horiz-adv-x="538" 
d="M83 0v654h394v-98h-278v-167h235v-98h-235v-193h288v-98h-404zM224 704l-97 112l50 32l107 -88h4l107 88l50 -32l-97 -112h-124z" />
    <glyph glyph-name="ecaron" unicode="&#x11b;" horiz-adv-x="507" 
d="M283 -12q-105 0 -173.5 69.5t-68.5 187.5q0 115 67.5 186.5t158.5 71.5q97 0 150 -63.5t53 -169.5q0 -36 -5 -56h-312q7 -65 46 -101t99 -36q58 0 114 36l39 -72q-80 -53 -168 -53zM152 292h218q0 58 -25.5 90t-74.5 32q-45 0 -78 -32t-40 -90zM209 576l-111 135l45 42
l122 -102h4l122 102l45 -42l-111 -135h-116z" />
    <glyph glyph-name="Gcircumflex" unicode="&#x11c;" horiz-adv-x="628" 
d="M357 -12q-137 0 -222.5 89t-85.5 248q0 157 87.5 249t221.5 92q117 0 198 -83l-62 -75q-59 57 -132 57q-88 0 -141 -64t-53 -173q0 -113 51.5 -176t148.5 -63q62 0 94 29v141h-124v95h228v-288q-35 -35 -90 -56.5t-119 -21.5zM201 725l97 111h124l97 -111l-50 -33
l-107 88h-4l-107 -88z" />
    <glyph glyph-name="gcircumflex" unicode="&#x11d;" horiz-adv-x="520" 
d="M244 -217q-92 0 -148 33t-56 95q0 61 70 105v4q-44 28 -44 82q0 52 54 91v4q-27 21 -45.5 55t-18.5 75q0 81 56.5 128.5t137.5 47.5q38 0 72 -12h176v-85h-90q28 -33 28 -83q0 -79 -52.5 -123t-133.5 -44q-35 0 -67 13q-24 -21 -24 -47q0 -45 80 -45h87q180 0 180 -121
q0 -74 -72 -123.5t-190 -49.5zM250 228q37 0 61 26.5t24 72.5q0 45 -24 71t-61 26t-61.5 -26t-24.5 -71q0 -46 24.5 -72.5t61.5 -26.5zM262 -142q58 0 95.5 23.5t37.5 55.5q0 27 -21.5 38t-65.5 11h-67q-40 0 -67 7q-38 -29 -38 -65q0 -33 33.5 -51.5t92.5 -18.5zM105 607
l111 135h116l111 -135l-45 -43l-122 103h-4l-122 -103z" />
    <glyph glyph-name="Gbreve" unicode="&#x11e;" horiz-adv-x="628" 
d="M357 -12q-137 0 -222.5 89t-85.5 248q0 157 87.5 249t221.5 92q117 0 198 -83l-62 -75q-59 57 -132 57q-88 0 -141 -64t-53 -173q0 -113 51.5 -176t148.5 -63q62 0 94 29v141h-124v95h228v-288q-35 -35 -90 -56.5t-119 -21.5zM360 701q-70 0 -109 35.5t-46 97.5l66 11
q6 -34 29 -54.5t60 -20.5t60 20.5t29 54.5l66 -11q-7 -62 -46 -97.5t-109 -35.5z" />
    <glyph glyph-name="gbreve" unicode="&#x11f;" horiz-adv-x="520" 
d="M244 -217q-92 0 -148 33t-56 95q0 61 70 105v4q-44 28 -44 82q0 52 54 91v4q-27 21 -45.5 55t-18.5 75q0 81 56.5 128.5t137.5 47.5q38 0 72 -12h176v-85h-90q28 -33 28 -83q0 -79 -52.5 -123t-133.5 -44q-35 0 -67 13q-24 -21 -24 -47q0 -45 80 -45h87q180 0 180 -121
q0 -74 -72 -123.5t-190 -49.5zM250 228q37 0 61 26.5t24 72.5q0 45 -24 71t-61 26t-61.5 -26t-24.5 -71q0 -46 24.5 -72.5t61.5 -26.5zM262 -142q58 0 95.5 23.5t37.5 55.5q0 27 -21.5 38t-65.5 11h-67q-40 0 -67 7q-38 -29 -38 -65q0 -33 33.5 -51.5t92.5 -18.5zM274 571
q-78 0 -118.5 44t-44.5 111l68 11q6 -39 30 -65.5t65 -26.5t65 26.5t30 65.5l68 -11q-4 -67 -44.5 -111t-118.5 -44z" />
    <glyph glyph-name="Gdotaccent" unicode="&#x120;" horiz-adv-x="628" 
d="M357 -12q-137 0 -222.5 89t-85.5 248q0 157 87.5 249t221.5 92q117 0 198 -83l-62 -75q-59 57 -132 57q-88 0 -141 -64t-53 -173q0 -113 51.5 -176t148.5 -63q62 0 94 29v141h-124v95h228v-288q-35 -35 -90 -56.5t-119 -21.5zM360 707q-31 0 -51 18.5t-20 47.5
q0 28 20 46.5t51 18.5t51 -18.5t20 -46.5q0 -29 -20 -47.5t-51 -18.5z" />
    <glyph glyph-name="gdotaccent" unicode="&#x121;" horiz-adv-x="520" 
d="M244 -217q-92 0 -148 33t-56 95q0 61 70 105v4q-44 28 -44 82q0 52 54 91v4q-27 21 -45.5 55t-18.5 75q0 81 56.5 128.5t137.5 47.5q38 0 72 -12h176v-85h-90q28 -33 28 -83q0 -79 -52.5 -123t-133.5 -44q-35 0 -67 13q-24 -21 -24 -47q0 -45 80 -45h87q180 0 180 -121
q0 -74 -72 -123.5t-190 -49.5zM250 228q37 0 61 26.5t24 72.5q0 45 -24 71t-61 26t-61.5 -26t-24.5 -71q0 -46 24.5 -72.5t61.5 -26.5zM262 -142q58 0 95.5 23.5t37.5 55.5q0 27 -21.5 38t-65.5 11h-67q-40 0 -67 7q-38 -29 -38 -65q0 -33 33.5 -51.5t92.5 -18.5zM274 577
q-30 0 -49 18.5t-19 47.5t19 47t49 18t49 -18t19 -47t-19 -47.5t-49 -18.5z" />
    <glyph glyph-name="uni0122" unicode="&#x122;" horiz-adv-x="628" 
d="M357 -12q-137 0 -222.5 89t-85.5 248q0 157 87.5 249t221.5 92q117 0 198 -83l-62 -75q-59 57 -132 57q-88 0 -141 -64t-53 -173q0 -113 51.5 -176t148.5 -63q62 0 94 29v141h-124v95h228v-288q-35 -35 -90 -56.5t-119 -21.5zM262 -233l-10 50q59 4 82.5 14t23.5 29
q0 33 -68 39l24 46q71 -7 100 -25.5t29 -54.5q0 -90 -181 -98z" />
    <glyph glyph-name="uni0123" unicode="&#x123;" horiz-adv-x="520" 
d="M244 -217q-92 0 -148 33t-56 95q0 61 70 105v4q-44 28 -44 82q0 52 54 91v4q-27 21 -45.5 55t-18.5 75q0 81 56.5 128.5t137.5 47.5q38 0 72 -12h176v-85h-90q28 -33 28 -83q0 -79 -52.5 -123t-133.5 -44q-35 0 -67 13q-24 -21 -24 -47q0 -45 80 -45h87q180 0 180 -121
q0 -74 -72 -123.5t-190 -49.5zM250 228q37 0 61 26.5t24 72.5q0 45 -24 71t-61 26t-61.5 -26t-24.5 -71q0 -46 24.5 -72.5t61.5 -26.5zM262 -142q58 0 95.5 23.5t37.5 55.5q0 27 -21.5 38t-65.5 11h-67q-40 0 -67 7q-38 -29 -38 -65q0 -33 33.5 -51.5t92.5 -18.5zM316 572
q-71 7 -100 25.5t-29 54.5q0 90 181 98l10 -50q-59 -4 -82.5 -14t-23.5 -30q0 -32 68 -38z" />
    <glyph glyph-name="Hcircumflex" unicode="&#x124;" horiz-adv-x="663" 
d="M83 0v654h116v-263h265v263h116v-654h-116v290h-265v-290h-116zM172 725l97 111h124l97 -111l-50 -33l-107 88h-4l-107 -88z" />
    <glyph glyph-name="hcircumflex" unicode="&#x125;" horiz-adv-x="558" 
d="M73 0v706h115v-182l-4 -95q78 74 157 74q151 0 151 -195v-308h-115v293q0 60 -18 85.5t-59 25.5q-30 0 -54 -14t-58 -47v-343h-115zM-29 770l97 111h124l97 -111l-50 -33l-107 88h-4l-107 -88z" />
    <glyph glyph-name="Hbar" unicode="&#x126;" horiz-adv-x="700" 
d="M28 489v54l75 5v106h116v-106h265v106h116v-106h71v-59h-71v-489h-116v290h-265v-290h-116v489h-75zM219 391h265v98h-265v-98z" />
    <glyph glyph-name="hbar" unicode="&#x127;" horiz-adv-x="558" 
d="M73 0v564h-71v54l71 5v83h115v-83h176v-59h-176v-84l-4 -95q78 74 157 74q151 0 151 -195v-264h-115v249q0 60 -18 85.5t-59 25.5q-30 0 -54 -14t-58 -47v-299h-115z" />
    <glyph glyph-name="Itilde" unicode="&#x128;" horiz-adv-x="282" 
d="M83 0v654h116v-654h-116zM214 700q-31 0 -58.5 16t-48 32t-36.5 16q-36 0 -42 -57l-76 6q4 65 34.5 99t80.5 34q31 0 58.5 -16t48 -32t36.5 -16q35 0 42 58l76 -6q-4 -65 -34.5 -99.5t-80.5 -34.5z" />
    <glyph glyph-name="itilde" unicode="&#x129;" horiz-adv-x="262" 
d="M73 0v491h115v-491h-115zM200 575q-29 0 -54.5 18.5t-46 37t-35.5 18.5q-35 0 -41 -67l-74 4q5 144 113 144q29 0 54.5 -18.5t46 -37t36.5 -18.5q34 0 40 67l74 -4q-5 -144 -113 -144z" />
    <glyph glyph-name="Imacron" unicode="&#x12a;" horiz-adv-x="282" 
d="M83 0v654h116v-654h-116zM-2 728v76h286v-76h-286z" />
    <glyph glyph-name="imacron" unicode="&#x12b;" horiz-adv-x="262" 
d="M73 0v491h115v-491h-115zM-9 596v76h280v-76h-280z" />
    <glyph glyph-name="uni012C" unicode="&#x12c;" horiz-adv-x="282" 
d="M83 0v654h116v-654h-116zM141 701q-70 0 -109 35.5t-46 97.5l66 11q6 -34 29 -54.5t60 -20.5t60 20.5t29 54.5l66 -11q-7 -62 -46 -97.5t-109 -35.5z" />
    <glyph glyph-name="uni012D" unicode="&#x12d;" horiz-adv-x="262" 
d="M73 0v491h115v-491h-115zM131 571q-78 0 -118.5 44t-44.5 111l68 11q6 -39 30 -65.5t65 -26.5t65 26.5t30 65.5l68 -11q-4 -67 -44.5 -111t-118.5 -44z" />
    <glyph glyph-name="Iogonek" unicode="&#x12e;" horiz-adv-x="282" 
d="M148 -218q-45 0 -75 24t-30 67q0 69 70 127h-30v654h116v-654q-70 -40 -70 -98q0 -20 13 -31t31 -11q22 0 39 14l28 -60q-39 -32 -92 -32z" />
    <glyph glyph-name="iogonek" unicode="&#x12f;" horiz-adv-x="262" 
d="M138 -208q-43 0 -70.5 23t-27.5 65q0 61 64 120h-31v491h115v-491q-68 -35 -68 -95q0 -20 13 -31t32 -11q17 0 37 13l26 -54q-37 -30 -90 -30zM130 577q-30 0 -50.5 18.5t-20.5 46.5q0 29 20.5 47.5t50.5 18.5q31 0 51.5 -18.5t20.5 -47.5q0 -28 -20.5 -46.5t-51.5 -18.5
z" />
    <glyph glyph-name="Idotaccent" unicode="&#x130;" horiz-adv-x="282" 
d="M83 0v654h116v-654h-116zM141 707q-31 0 -51 18.5t-20 47.5q0 28 20 46.5t51 18.5t51 -18.5t20 -46.5q0 -29 -20 -47.5t-51 -18.5z" />
    <glyph glyph-name="dotlessi" unicode="&#x131;" horiz-adv-x="262" 
d="M73 0v491h115v-491h-115z" />
    <glyph glyph-name="uni0132" unicode="&#x132;" horiz-adv-x="565" 
d="M83 0v654h116v-654h-116zM325 -174q-47 0 -79 14l21 87q23 -7 42 -7q32 0 44.5 21t12.5 66v647h116v-646q0 -182 -157 -182z" />
    <glyph glyph-name="uni0133" unicode="&#x133;" horiz-adv-x="524" 
d="M73 0v491h115v-491h-115zM131 577q-31 0 -51 18.5t-20 46.5q0 29 20 47.5t51 18.5t51 -18.5t20 -47.5q0 -28 -20 -46.5t-51 -18.5zM296 -206q-45 0 -80 13l22 86q26 -8 42 -8q32 0 44 21.5t12 66.5v518h116v-516q0 -181 -156 -181zM394 577q-30 0 -50.5 18.5t-20.5 46.5
q0 29 20.5 47.5t50.5 18.5q31 0 51.5 -18.5t20.5 -47.5q0 -28 -20.5 -46.5t-51.5 -18.5z" />
    <glyph glyph-name="Jcircumflex" unicode="&#x134;" horiz-adv-x="494" 
d="M219 -12q-133 0 -195 111l80 59q37 -69 102 -69q47 0 69.5 29t22.5 97v439h116v-449q0 -96 -48.5 -156.5t-146.5 -60.5zM195 725l97 111h124l97 -111l-50 -33l-107 88h-4l-107 -88z" />
    <glyph glyph-name="jcircumflex" unicode="&#x135;" horiz-adv-x="263" 
d="M34 -206q-45 0 -80 13l22 86q26 -8 42 -8q32 0 44 21.5t12 66.5v518h116v-516q0 -181 -156 -181zM-37 607l111 135h116l111 -135l-45 -43l-122 103h-4l-122 -103z" />
    <glyph glyph-name="uni0136" unicode="&#x136;" horiz-adv-x="597" 
d="M83 0v654h116v-297h3l233 297h129l-201 -255l235 -399h-128l-177 308l-94 -117v-191h-116zM235 -233l-10 50q59 4 82.5 14t23.5 29q0 33 -68 39l24 46q71 -7 100 -25.5t29 -54.5q0 -90 -181 -98z" />
    <glyph glyph-name="uni0137" unicode="&#x137;" horiz-adv-x="522" 
d="M73 0v706h113v-441h3l182 226h126l-168 -200l185 -291h-125l-126 213l-77 -88v-125h-113zM189 -233l-10 50q59 4 82.5 14t23.5 29q0 33 -68 39l24 46q71 -7 100 -25.5t29 -54.5q0 -90 -181 -98z" />
    <glyph glyph-name="kgreenlandic" unicode="&#x138;" horiz-adv-x="522" 
d="M73 0v491h115v-228h4l179 228h126l-166 -200l183 -291h-125l-126 210l-75 -89v-121h-115z" />
    <glyph glyph-name="Lacute" unicode="&#x139;" horiz-adv-x="502" 
d="M83 0v654h116v-556h272v-98h-388zM130 688l-51 58l157 135l62 -76z" />
    <glyph glyph-name="lacute" unicode="&#x13a;" horiz-adv-x="271" 
d="M185 -12q-112 0 -112 138v580h115v-586q0 -38 25 -38q9 0 18 2l15 -86q-23 -10 -61 -10zM116 742l-51 58l157 135l62 -76z" />
    <glyph glyph-name="uni013B" unicode="&#x13b;" horiz-adv-x="502" 
d="M83 0v654h116v-556h272v-98h-388zM195 -233l-10 50q59 4 82.5 14t23.5 29q0 33 -68 39l24 46q71 -7 100 -25.5t29 -54.5q0 -90 -181 -98z" />
    <glyph glyph-name="uni013C" unicode="&#x13c;" horiz-adv-x="271" 
d="M185 -12q-112 0 -112 138v580h115v-586q0 -38 25 -38q9 0 18 2l15 -86q-23 -10 -61 -10zM78 -233l-10 50q59 4 82.5 14t23.5 29q0 33 -68 39l24 46q71 -7 100 -25.5t29 -54.5q0 -90 -181 -98z" />
    <glyph glyph-name="Lcaron" unicode="&#x13d;" horiz-adv-x="502" 
d="M83 0v654h116v-556h272v-98h-388zM343 512l-5 217h77l-1 -63l-19 -154h-52z" />
    <glyph glyph-name="lcaron" unicode="&#x13e;" horiz-adv-x="295" 
d="M185 -12q-112 0 -112 138v580h115v-586q0 -38 25 -38q9 0 18 2l15 -86q-23 -10 -61 -10zM239 548l-5 217h77l-1 -63l-19 -154h-52z" />
    <glyph glyph-name="Ldot" unicode="&#x13f;" horiz-adv-x="502" 
d="M83 0v654h116v-556h272v-98h-388zM394 249q-32 0 -53.5 22t-21.5 56t21.5 56t53.5 22t53 -22t21 -56t-21 -56t-53 -22z" />
    <glyph glyph-name="ldot" unicode="&#x140;" horiz-adv-x="408" 
d="M185 -12q-112 0 -112 138v580h115v-586q0 -38 25 -38q9 0 18 2l15 -86q-23 -10 -61 -10zM335 249q-32 0 -53.5 22t-21.5 56t21.5 56t53.5 22t53 -22t21 -56t-21 -56t-53 -22z" />
    <glyph glyph-name="Lslash" unicode="&#x141;" horiz-adv-x="507" 
d="M26 188l-41 70l104 58v338h116v-286l167 92l40 -71l-207 -112v-179h272v-98h-388v225z" />
    <glyph glyph-name="lslash" unicode="&#x142;" horiz-adv-x="283" 
d="M192 -12q-112 0 -112 138v177l-51 -31l-40 72l91 54v308h115v-250l51 30l41 -72l-92 -54v-240q0 -38 25 -38q9 0 18 2l15 -86q-23 -10 -61 -10z" />
    <glyph glyph-name="Nacute" unicode="&#x143;" horiz-adv-x="656" 
d="M83 0v654h119l204 -368l67 -139h4q-1 17 -5.5 66t-7 86.5t-2.5 70.5v284h111v-654h-119l-204 368l-67 139h-4q1 -20 5.5 -67t7 -84t2.5 -70v-286h-111zM316 688l-51 58l157 135l62 -76z" />
    <glyph glyph-name="nacute" unicode="&#x144;" horiz-adv-x="560" 
d="M73 0v491h95l8 -66h4q80 78 161 78q151 0 151 -195v-308h-115v293q0 60 -18 85.5t-59 25.5q-30 0 -54 -14t-58 -47v-343h-115zM298 573l-57 57l147 174l80 -76z" />
    <glyph glyph-name="uni0145" unicode="&#x145;" horiz-adv-x="656" 
d="M83 0v654h119l204 -368l67 -139h4q-1 17 -5.5 66t-7 86.5t-2.5 70.5v284h111v-654h-119l-204 368l-67 139h-4q1 -20 5.5 -67t7 -84t2.5 -70v-286h-111zM242 -233l-10 50q59 4 82.5 14t23.5 29q0 33 -68 39l24 46q71 -7 100 -25.5t29 -54.5q0 -90 -181 -98z" />
    <glyph glyph-name="uni0146" unicode="&#x146;" horiz-adv-x="560" 
d="M73 0v491h95l8 -66h4q80 78 161 78q151 0 151 -195v-308h-115v293q0 60 -18 85.5t-59 25.5q-30 0 -54 -14t-58 -47v-343h-115zM191 -233l-10 50q59 4 82.5 14t23.5 29q0 33 -68 39l24 46q71 -7 100 -25.5t29 -54.5q0 -90 -181 -98z" />
    <glyph glyph-name="Ncaron" unicode="&#x147;" horiz-adv-x="656" 
d="M83 0v654h119l204 -368l67 -139h4q-1 17 -5.5 66t-7 86.5t-2.5 70.5v284h111v-654h-119l-204 368l-67 139h-4q1 -20 5.5 -67t7 -84t2.5 -70v-286h-111zM268 704l-97 112l50 32l107 -88h4l107 88l50 -32l-97 -112h-124z" />
    <glyph glyph-name="ncaron" unicode="&#x148;" horiz-adv-x="560" 
d="M73 0v491h95l8 -66h4q80 78 161 78q151 0 151 -195v-308h-115v293q0 60 -18 85.5t-59 25.5q-30 0 -54 -14t-58 -47v-343h-115zM242 576l-111 135l45 42l122 -102h4l122 102l45 -42l-111 -135h-116z" />
    <glyph glyph-name="napostrophe" unicode="&#x149;" horiz-adv-x="814" 
d="M324 0v491h95l8 -66h4q80 78 161 78q151 0 151 -195v-308h-115v293q0 60 -18 85.5t-59 25.5q-30 0 -54 -14t-58 -47v-343h-115zM95 391l-28 51q83 48 83 126q-3 -1 -9 -1q-27 0 -46 17t-19 45q0 31 18 50t47 19q38 0 58.5 -29t20.5 -82q0 -131 -125 -196z" />
    <glyph glyph-name="uni014A" unicode="&#x14a;" horiz-adv-x="651" 
d="M409 -12q-57 0 -84 17l26 101q23 -9 45 -9q87 0 87 236q0 232 -139 232q-36 0 -77.5 -24.5t-67.5 -64.5v-476h-116v654h113v-76q78 88 180 88q104 0 165 -79.5t61 -253.5q0 -345 -193 -345z" />
    <glyph glyph-name="uni014B" unicode="&#x14b;" horiz-adv-x="560" 
d="M336 -185q-44 0 -79 13l21 86q23 -7 42 -7q32 0 44.5 21t12.5 66v299q0 60 -18 85.5t-59 25.5q-30 0 -54 -14t-58 -47v-343h-115v491h95l8 -66h4q80 78 161 78q151 0 151 -195v-312q0 -181 -156 -181z" />
    <glyph glyph-name="Omacron" unicode="&#x14c;" horiz-adv-x="674" 
d="M337 -12q-129 0 -208.5 92.5t-79.5 249.5q0 156 79.5 246t208.5 90q130 0 209.5 -90t79.5 -246q0 -157 -79.5 -249.5t-209.5 -92.5zM337 89q77 0 123 65.5t46 175.5q0 109 -45.5 172t-123.5 63t-123.5 -63t-45.5 -172q0 -110 46 -175.5t123 -65.5zM194 728v76h286v-76
h-286z" />
    <glyph glyph-name="omacron" unicode="&#x14d;" horiz-adv-x="549" 
d="M274 -12q-96 0 -164.5 70t-68.5 187q0 118 68.5 188t164.5 70q97 0 165.5 -70t68.5 -188t-68.5 -187.5t-165.5 -69.5zM274 82q54 0 85 44.5t31 118.5q0 75 -31 119.5t-85 44.5t-84.5 -44.5t-30.5 -119.5q0 -74 31 -118.5t84 -44.5zM134 596v76h280v-76h-280z" />
    <glyph glyph-name="uni014E" unicode="&#x14e;" horiz-adv-x="674" 
d="M337 -12q-129 0 -208.5 92.5t-79.5 249.5q0 156 79.5 246t208.5 90q130 0 209.5 -90t79.5 -246q0 -157 -79.5 -249.5t-209.5 -92.5zM337 89q77 0 123 65.5t46 175.5q0 109 -45.5 172t-123.5 63t-123.5 -63t-45.5 -172q0 -110 46 -175.5t123 -65.5zM337 701
q-70 0 -109 35.5t-46 97.5l66 11q6 -34 29 -54.5t60 -20.5t60 20.5t29 54.5l66 -11q-7 -62 -46 -97.5t-109 -35.5z" />
    <glyph glyph-name="uni014F" unicode="&#x14f;" horiz-adv-x="549" 
d="M274 -12q-96 0 -164.5 70t-68.5 187q0 118 68.5 188t164.5 70q97 0 165.5 -70t68.5 -188t-68.5 -187.5t-165.5 -69.5zM274 82q54 0 85 44.5t31 118.5q0 75 -31 119.5t-85 44.5t-84.5 -44.5t-30.5 -119.5q0 -74 31 -118.5t84 -44.5zM274 571q-78 0 -118.5 44t-44.5 111
l68 11q6 -39 30 -65.5t65 -26.5t65 26.5t30 65.5l68 -11q-4 -67 -44.5 -111t-118.5 -44z" />
    <glyph glyph-name="Ohungarumlaut" unicode="&#x150;" horiz-adv-x="674" 
d="M337 -12q-129 0 -208.5 92.5t-79.5 249.5q0 156 79.5 246t208.5 90q130 0 209.5 -90t79.5 -246q0 -157 -79.5 -249.5t-209.5 -92.5zM337 89q77 0 123 65.5t46 175.5q0 109 -45.5 172t-123.5 63t-123.5 -63t-45.5 -172q0 -110 46 -175.5t123 -65.5zM218 726l97 157l75 -43
l-114 -142zM392 726l97 157l75 -43l-114 -142z" />
    <glyph glyph-name="ohungarumlaut" unicode="&#x151;" horiz-adv-x="549" 
d="M274 -12q-96 0 -164.5 70t-68.5 187q0 118 68.5 188t164.5 70q97 0 165.5 -70t68.5 -188t-68.5 -187.5t-165.5 -69.5zM274 82q54 0 85 44.5t31 118.5q0 75 -31 119.5t-85 44.5t-84.5 -44.5t-30.5 -119.5q0 -74 31 -118.5t84 -44.5zM223 566l-62 28l87 177l79 -36z
M388 566l-62 28l87 177l79 -36z" />
    <glyph glyph-name="OE" unicode="&#x152;" horiz-adv-x="859" 
d="M371 0q-148 0 -235 85.5t-87 244.5q0 158 88 241t240 83h421v-98h-262v-167h220v-98h-220v-193h272v-98h-437zM384 94h36v466h-36q-216 0 -216 -230q0 -119 56 -177.5t160 -58.5z" />
    <glyph glyph-name="oe" unicode="&#x153;" horiz-adv-x="830" 
d="M266 -12q-95 0 -160 69.5t-65 187.5q0 119 65.5 188.5t161.5 69.5q111 0 168 -104q29 49 72.5 76.5t91.5 27.5q92 0 143 -64.5t51 -170.5q0 -24 -5 -54h-303q6 -63 43.5 -98.5t92.5 -35.5q53 0 112 38l41 -77q-80 -53 -169 -53q-50 0 -95 27.5t-73 76.5
q-61 -104 -172 -104zM268 82q50 0 80.5 44.5t30.5 118.5t-30.5 119t-80.5 45t-80 -45t-30 -119q0 -73 30 -118t80 -45zM486 287h208q0 60 -25 93.5t-72 33.5q-44 0 -74 -33.5t-37 -93.5z" />
    <glyph glyph-name="Racute" unicode="&#x154;" horiz-adv-x="592" 
d="M83 0v654h221q240 0 240 -194q0 -142 -130 -187l156 -273h-130l-141 256h-100v-256h-116zM199 348h93q138 0 138 112q0 54 -34.5 77.5t-103.5 23.5h-93v-213zM284 688l-51 58l157 135l62 -76z" />
    <glyph glyph-name="racute" unicode="&#x155;" horiz-adv-x="373" 
d="M73 0v491h95l8 -87h4q26 47 62.5 73t76.5 26q35 0 56 -10l-20 -100q-27 8 -51 8q-32 0 -63.5 -24.5t-52.5 -76.5v-300h-115zM230 573l-57 57l147 174l80 -76z" />
    <glyph glyph-name="uni0156" unicode="&#x156;" horiz-adv-x="592" 
d="M83 0v654h221q240 0 240 -194q0 -142 -130 -187l156 -273h-130l-141 256h-100v-256h-116zM199 348h93q138 0 138 112q0 54 -34.5 77.5t-103.5 23.5h-93v-213zM221 -233l-10 50q59 4 82.5 14t23.5 29q0 33 -68 39l24 46q71 -7 100 -25.5t29 -54.5q0 -90 -181 -98z" />
    <glyph glyph-name="uni0157" unicode="&#x157;" horiz-adv-x="373" 
d="M73 0v491h95l8 -87h4q26 47 62.5 73t76.5 26q35 0 56 -10l-20 -100q-27 8 -51 8q-32 0 -63.5 -24.5t-52.5 -76.5v-300h-115zM36 -233l-10 50q59 4 82.5 14t23.5 29q0 33 -68 39l24 46q71 -7 100 -25.5t29 -54.5q0 -90 -181 -98z" />
    <glyph glyph-name="Rcaron" unicode="&#x158;" horiz-adv-x="592" 
d="M83 0v654h221q240 0 240 -194q0 -142 -130 -187l156 -273h-130l-141 256h-100v-256h-116zM199 348h93q138 0 138 112q0 54 -34.5 77.5t-103.5 23.5h-93v-213zM236 704l-97 112l50 32l107 -88h4l107 88l50 -32l-97 -112h-124z" />
    <glyph glyph-name="rcaron" unicode="&#x159;" horiz-adv-x="373" 
d="M73 0v491h95l8 -87h4q26 47 62.5 73t76.5 26q35 0 56 -10l-20 -100q-27 8 -51 8q-32 0 -63.5 -24.5t-52.5 -76.5v-300h-115zM174 576l-111 135l45 42l122 -102h4l122 102l45 -42l-111 -135h-116z" />
    <glyph glyph-name="Sacute" unicode="&#x15a;" horiz-adv-x="545" 
d="M274 -12q-138 0 -236 96l68 79q79 -74 170 -74q55 0 84.5 22.5t29.5 61.5q0 26 -15 44.5t-31.5 27t-54.5 24.5l-90 39q-132 56 -132 174q0 79 62.5 131.5t157.5 52.5q118 0 201 -83l-59 -74q-67 56 -142 56q-47 0 -75 -20.5t-28 -56.5q0 -24 17 -42.5t33.5 -26.5
t53.5 -23l89 -37q63 -27 97.5 -68.5t34.5 -108.5q0 -82 -64 -138t-171 -56zM271 688l-51 58l157 135l62 -76z" />
    <glyph glyph-name="sacute" unicode="&#x15b;" horiz-adv-x="431" 
d="M210 -12q-102 0 -186 68l54 74q71 -55 136 -55q38 0 58 16t20 43q0 15 -7.5 26t-27.5 22t-30 15l-40 16q-62 23 -100 55.5t-38 87.5q0 65 48.5 106t130.5 41q87 0 163 -59l-53 -70q-57 42 -108 42q-35 0 -53.5 -15t-18.5 -39q0 -17 14.5 -30.5t31.5 -21t47 -18.5l9 -3
q32 -12 51.5 -21.5t43 -27t35 -42.5t11.5 -58q0 -66 -50.5 -109t-140.5 -43zM226 573l-57 57l147 174l80 -76z" />
    <glyph glyph-name="Scircumflex" unicode="&#x15c;" horiz-adv-x="545" 
d="M274 -12q-138 0 -236 96l68 79q79 -74 170 -74q55 0 84.5 22.5t29.5 61.5q0 26 -15 44.5t-31.5 27t-54.5 24.5l-90 39q-132 56 -132 174q0 79 62.5 131.5t157.5 52.5q118 0 201 -83l-59 -74q-67 56 -142 56q-47 0 -75 -20.5t-28 -56.5q0 -24 17 -42.5t33.5 -26.5
t53.5 -23l89 -37q63 -27 97.5 -68.5t34.5 -108.5q0 -82 -64 -138t-171 -56zM126 725l97 111h124l97 -111l-50 -33l-107 88h-4l-107 -88z" />
    <glyph glyph-name="scircumflex" unicode="&#x15d;" horiz-adv-x="431" 
d="M210 -12q-102 0 -186 68l54 74q71 -55 136 -55q38 0 58 16t20 43q0 15 -7.5 26t-27.5 22t-30 15l-40 16q-62 23 -100 55.5t-38 87.5q0 65 48.5 106t130.5 41q87 0 163 -59l-53 -70q-57 42 -108 42q-35 0 -53.5 -15t-18.5 -39q0 -17 14.5 -30.5t31.5 -21t47 -18.5l9 -3
q32 -12 51.5 -21.5t43 -27t35 -42.5t11.5 -58q0 -66 -50.5 -109t-140.5 -43zM59 607l111 135h116l111 -135l-45 -43l-122 103h-4l-122 -103z" />
    <glyph glyph-name="uni015E" unicode="&#x15e;" horiz-adv-x="545" 
d="M182 -233l-10 50q60 4 83 14.5t23 32.5q0 35 -77 45l39 81q-117 11 -202 94l68 79q79 -74 170 -74q55 0 84.5 22.5t29.5 61.5q0 26 -15 44.5t-31.5 27t-54.5 24.5l-90 39q-132 56 -132 174q0 79 62.5 131.5t157.5 52.5q118 0 201 -83l-59 -74q-67 56 -142 56
q-47 0 -75 -20.5t-28 -56.5q0 -24 17 -42.5t33.5 -26.5t53.5 -23l89 -37q63 -27 97.5 -68.5t34.5 -108.5q0 -75 -53 -128.5t-145 -63.5l-23 -52q38 -9 56.5 -26t18.5 -47q0 -90 -181 -98z" />
    <glyph glyph-name="uni015F" unicode="&#x15f;" horiz-adv-x="431" 
d="M136 -233l-10 50q60 4 83 14.5t23 32.5q0 35 -77 45l39 80q-96 6 -170 67l54 74q71 -55 136 -55q38 0 58 16t20 43q0 15 -7.5 26t-27.5 22t-30 15l-40 16q-62 23 -100 55.5t-38 87.5q0 65 48.5 106t130.5 41q87 0 163 -59l-53 -70q-57 42 -108 42q-35 0 -53.5 -15
t-18.5 -39q0 -17 14.5 -30.5t31.5 -21t47 -18.5l9 -3q32 -12 51.5 -21.5t43 -27t35 -42.5t11.5 -58q0 -54 -35 -94t-99 -53l-25 -55q38 -9 56.5 -26t18.5 -47q0 -90 -181 -98z" />
    <glyph glyph-name="Scaron" unicode="&#x160;" horiz-adv-x="545" 
d="M274 -12q-138 0 -236 96l68 79q79 -74 170 -74q55 0 84.5 22.5t29.5 61.5q0 26 -15 44.5t-31.5 27t-54.5 24.5l-90 39q-132 56 -132 174q0 79 62.5 131.5t157.5 52.5q118 0 201 -83l-59 -74q-67 56 -142 56q-47 0 -75 -20.5t-28 -56.5q0 -24 17 -42.5t33.5 -26.5
t53.5 -23l89 -37q63 -27 97.5 -68.5t34.5 -108.5q0 -82 -64 -138t-171 -56zM223 704l-97 112l50 32l107 -88h4l107 88l50 -32l-97 -112h-124z" />
    <glyph glyph-name="scaron" unicode="&#x161;" horiz-adv-x="431" 
d="M210 -12q-102 0 -186 68l54 74q71 -55 136 -55q38 0 58 16t20 43q0 15 -7.5 26t-27.5 22t-30 15l-40 16q-62 23 -100 55.5t-38 87.5q0 65 48.5 106t130.5 41q87 0 163 -59l-53 -70q-57 42 -108 42q-35 0 -53.5 -15t-18.5 -39q0 -17 14.5 -30.5t31.5 -21t47 -18.5l9 -3
q32 -12 51.5 -21.5t43 -27t35 -42.5t11.5 -58q0 -66 -50.5 -109t-140.5 -43zM170 576l-111 135l45 42l122 -102h4l122 102l45 -42l-111 -135h-116z" />
    <glyph glyph-name="uni0162" unicode="&#x162;" horiz-adv-x="546" 
d="M215 0v556h-189v98h494v-98h-189v-556h-19l-28 -62q38 -9 56.5 -26t18.5 -47q0 -90 -181 -98l-10 50q60 4 83 14.5t23 32.5q0 35 -77 45l45 91h-27z" />
    <glyph glyph-name="uni0163" unicode="&#x163;" horiz-adv-x="361" 
d="M135 -233l-10 50q60 4 83 14.5t23 32.5q0 35 -77 45l41 85q-105 26 -105 172v234h-70v86l76 5l14 134h96v-134h125v-91h-125v-234q0 -86 69 -86q25 0 51 11l20 -85q-41 -14 -82 -17l-23 -51q38 -9 56.5 -26t18.5 -47q0 -90 -181 -98z" />
    <glyph glyph-name="Tcaron" unicode="&#x164;" horiz-adv-x="546" 
d="M215 0v556h-189v98h494v-98h-189v-556h-116zM211 704l-97 112l50 32l107 -88h4l107 88l50 -32l-97 -112h-124z" />
    <glyph glyph-name="tcaron" unicode="&#x165;" horiz-adv-x="361" 
d="M246 -12q-156 0 -156 178v234h-70v86l76 5l14 134h96v-134h125v-91h-125v-234q0 -86 69 -86q25 0 51 11l20 -85q-54 -18 -100 -18zM268 548l-5 217h77l-1 -63l-19 -154h-52z" />
    <glyph glyph-name="uni0166" unicode="&#x166;" horiz-adv-x="546" 
d="M215 0v299h-121v55l92 4h29v198h-189v98h494v-98h-189v-198h121v-59h-121v-299h-116z" />
    <glyph glyph-name="uni0167" unicode="&#x167;" horiz-adv-x="361" 
d="M20 227v54l70 5v114h-70v86l76 5l14 134h96v-134h125v-91h-125v-114h125v-59h-125v-61q0 -86 69 -86q25 0 51 11l20 -85q-54 -18 -100 -18q-156 0 -156 178v61h-70z" />
    <glyph glyph-name="Utilde" unicode="&#x168;" horiz-adv-x="655" 
d="M328 -12q-248 0 -248 299v367h116v-376q0 -189 132 -189q136 0 136 189v376h111v-367q0 -299 -247 -299zM401 700q-31 0 -58.5 16t-48 32t-36.5 16q-36 0 -42 -57l-76 6q4 65 34.5 99t80.5 34q31 0 58.5 -16t48 -32t36.5 -16q35 0 42 58l76 -6q-4 -65 -34.5 -99.5
t-80.5 -34.5z" />
    <glyph glyph-name="utilde" unicode="&#x169;" horiz-adv-x="556" 
d="M219 -12q-151 0 -151 195v308h115v-293q0 -60 18 -85.5t58 -25.5q32 0 56.5 15.5t52.5 52.5v336h115v-491h-94l-9 72h-3q-71 -84 -158 -84zM348 575q-29 0 -54.5 18.5t-46 37t-35.5 18.5q-35 0 -41 -67l-74 4q5 144 113 144q29 0 54.5 -18.5t46 -37t36.5 -18.5
q34 0 40 67l74 -4q-5 -144 -113 -144z" />
    <glyph glyph-name="Umacron" unicode="&#x16a;" horiz-adv-x="655" 
d="M328 -12q-248 0 -248 299v367h116v-376q0 -189 132 -189q136 0 136 189v376h111v-367q0 -299 -247 -299zM185 728v76h286v-76h-286z" />
    <glyph glyph-name="umacron" unicode="&#x16b;" horiz-adv-x="556" 
d="M219 -12q-151 0 -151 195v308h115v-293q0 -60 18 -85.5t58 -25.5q32 0 56.5 15.5t52.5 52.5v336h115v-491h-94l-9 72h-3q-71 -84 -158 -84zM137 596v76h280v-76h-280z" />
    <glyph glyph-name="Ubreve" unicode="&#x16c;" horiz-adv-x="655" 
d="M328 -12q-248 0 -248 299v367h116v-376q0 -189 132 -189q136 0 136 189v376h111v-367q0 -299 -247 -299zM328 701q-70 0 -109 35.5t-46 97.5l66 11q6 -34 29 -54.5t60 -20.5t60 20.5t29 54.5l66 -11q-7 -62 -46 -97.5t-109 -35.5z" />
    <glyph glyph-name="ubreve" unicode="&#x16d;" horiz-adv-x="556" 
d="M219 -12q-151 0 -151 195v308h115v-293q0 -60 18 -85.5t58 -25.5q32 0 56.5 15.5t52.5 52.5v336h115v-491h-94l-9 72h-3q-71 -84 -158 -84zM279 571q-78 0 -118.5 44t-44.5 111l68 11q6 -39 30 -65.5t65 -26.5t65 26.5t30 65.5l68 -11q-4 -67 -44.5 -111t-118.5 -44z" />
    <glyph glyph-name="Uring" unicode="&#x16e;" horiz-adv-x="655" 
d="M328 -12q-248 0 -248 299v367h116v-376q0 -189 132 -189q136 0 136 189v376h111v-367q0 -299 -247 -299zM328 698q-47 0 -76.5 26t-29.5 68q0 43 29.5 69t76.5 26q46 0 76 -26t30 -69q0 -42 -30 -68t-76 -26zM328 744q19 0 32.5 13t13.5 35t-13.5 35.5t-32.5 13.5
q-20 0 -33.5 -13.5t-13.5 -35.5t13.5 -35t33.5 -13z" />
    <glyph glyph-name="uring" unicode="&#x16f;" horiz-adv-x="556" 
d="M219 -12q-151 0 -151 195v308h115v-293q0 -60 18 -85.5t58 -25.5q32 0 56.5 15.5t52.5 52.5v336h115v-491h-94l-9 72h-3q-71 -84 -158 -84zM279 559q-56 0 -88.5 28.5t-32.5 72.5q0 45 32.5 73.5t88.5 28.5t88.5 -28.5t32.5 -73.5q0 -44 -32.5 -72.5t-88.5 -28.5z
M279 605q21 0 35.5 15.5t14.5 39.5q0 25 -14.5 40.5t-35.5 15.5t-35.5 -15.5t-14.5 -40.5q0 -24 14.5 -39.5t35.5 -15.5z" />
    <glyph glyph-name="Uhungarumlaut" unicode="&#x170;" horiz-adv-x="655" 
d="M328 -12q-248 0 -248 299v367h116v-376q0 -189 132 -189q136 0 136 189v376h111v-367q0 -299 -247 -299zM209 726l97 157l75 -43l-114 -142zM383 726l97 157l75 -43l-114 -142z" />
    <glyph glyph-name="uhungarumlaut" unicode="&#x171;" horiz-adv-x="556" 
d="M219 -12q-151 0 -151 195v308h115v-293q0 -60 18 -85.5t58 -25.5q32 0 56.5 15.5t52.5 52.5v336h115v-491h-94l-9 72h-3q-71 -84 -158 -84zM228 566l-62 28l87 177l79 -36zM393 566l-62 28l87 177l79 -36z" />
    <glyph glyph-name="Uogonek" unicode="&#x172;" horiz-adv-x="655" 
d="M354 -218q-46 0 -76 24t-30 67q0 27 14 53.5t22.5 35.5t27.5 27q-232 11 -232 298v367h116v-376q0 -189 132 -189q136 0 136 189v376h111v-367q0 -88 -20 -145.5t-53.5 -89t-91.5 -58.5q-36 -17 -55.5 -42.5t-19.5 -49.5q0 -20 13 -31t32 -11t38 14l28 -60
q-39 -32 -92 -32z" />
    <glyph glyph-name="uogonek" unicode="&#x173;" horiz-adv-x="556" 
d="M414 -208q-43 0 -70.5 23t-27.5 65q0 67 74 121l-10 71h-3q-71 -84 -158 -84q-151 0 -151 195v308h115v-293q0 -60 18 -85.5t58 -25.5q32 0 56.5 15.5t52.5 52.5v336h115v-491q-87 -34 -87 -95q0 -20 13 -31t31 -11q22 0 38 13l26 -54q-37 -30 -90 -30z" />
    <glyph glyph-name="Wcircumflex" unicode="&#x174;" horiz-adv-x="800" 
d="M148 0l-130 654h119l57 -330q22 -140 32 -209h4q34 168 43 209l80 330h101l80 -330q8 -38 23 -109.5t21 -99.5h4q5 37 15.5 107.5t15.5 101.5l57 330h111l-125 -654h-144l-81 344q-19 87 -29 151h-4q-13 -72 -30 -151l-79 -344h-141zM241 725l97 111h124l97 -111l-50 -33
l-107 88h-4l-107 -88z" />
    <glyph glyph-name="wcircumflex" unicode="&#x175;" horiz-adv-x="748" 
d="M154 0l-130 491h116l59 -255q6 -28 15 -79t11 -62h4q15 79 31 141l64 255h105l65 -255q7 -26 33 -141h4q4 20 12.5 67.5t13.5 73.5l59 255h108l-125 -491h-137l-57 229q-6 27 -17 80t-13 63h-4q-14 -82 -29 -144l-56 -228h-132zM206 607l111 135h116l111 -135l-45 -43
l-122 103h-4l-122 -103z" />
    <glyph glyph-name="Ycircumflex" unicode="&#x176;" horiz-adv-x="501" 
d="M192 0v243l-196 411h124l71 -167q30 -77 58 -144h4q54 129 60 144l71 167h121l-197 -411v-243h-116zM91 725l97 111h124l97 -111l-50 -33l-107 88h-4l-107 -88z" />
    <glyph glyph-name="ycircumflex" unicode="&#x177;" horiz-adv-x="495" 
d="M106 -202q-34 0 -64 10l21 90q21 -7 35 -7q71 0 98 84l9 31l-193 485h117l85 -241q7 -21 21 -67.5t22 -70.5h4q28 105 37 138l74 241h111l-178 -513q-33 -90 -78 -135t-121 -45zM86 607l111 135h116l111 -135l-45 -43l-122 103h-4l-122 -103z" />
    <glyph glyph-name="Ydieresis" unicode="&#x178;" horiz-adv-x="501" 
d="M192 0v243l-196 411h124l71 -167q30 -77 58 -144h4q54 129 60 144l71 167h121l-197 -411v-243h-116zM143 708q-26 0 -42.5 16.5t-16.5 42.5t16.5 43t42.5 17t43 -17t17 -43t-17 -42.5t-43 -16.5zM357 708q-26 0 -43 16.5t-17 42.5t17 43t43 17t42.5 -17t16.5 -43
t-16.5 -42.5t-42.5 -16.5z" />
    <glyph glyph-name="Zacute" unicode="&#x179;" horiz-adv-x="540" 
d="M40 0v70l316 486h-287v98h431v-70l-317 -486h319v-98h-462zM268 688l-51 58l157 135l62 -76z" />
    <glyph glyph-name="zacute" unicode="&#x17a;" horiz-adv-x="443" 
d="M34 0v62l232 338h-206v91h350v-61l-231 -338h239v-92h-384zM235 573l-57 57l147 174l80 -76z" />
    <glyph glyph-name="Zdotaccent" unicode="&#x17b;" horiz-adv-x="540" 
d="M40 0v70l316 486h-287v98h431v-70l-317 -486h319v-98h-462zM282 707q-31 0 -51 18.5t-20 47.5q0 28 20 46.5t51 18.5t51 -18.5t20 -46.5q0 -29 -20 -47.5t-51 -18.5z" />
    <glyph glyph-name="zdotaccent" unicode="&#x17c;" horiz-adv-x="443" 
d="M34 0v62l232 338h-206v91h350v-61l-231 -338h239v-92h-384zM237 577q-30 0 -49 18.5t-19 47.5t19 47t49 18t49 -18t19 -47t-19 -47.5t-49 -18.5z" />
    <glyph glyph-name="Zcaron" unicode="&#x17d;" horiz-adv-x="540" 
d="M40 0v70l316 486h-287v98h431v-70l-317 -486h319v-98h-462zM220 704l-97 112l50 32l107 -88h4l107 88l50 -32l-97 -112h-124z" />
    <glyph glyph-name="zcaron" unicode="&#x17e;" horiz-adv-x="443" 
d="M34 0v62l232 338h-206v91h350v-61l-231 -338h239v-92h-384zM179 576l-111 135l45 42l122 -102h4l122 102l45 -42l-111 -135h-116z" />
    <glyph glyph-name="uni0180" unicode="&#x180;" horiz-adv-x="558" 
d="M311 -12q-70 0 -134 64h-3l-10 -52h-91v564h-71v54l71 5v83h115v-83h176v-59h-176v-84l-3 -82q69 61 142 61q91 0 142.5 -61.5t51.5 -164.5q0 -110 -62 -177.5t-148 -67.5zM287 83q50 0 82.5 40t32.5 108q0 133 -106 133q-52 0 -108 -55v-185q48 -41 99 -41z" />
    <glyph glyph-name="uni018F" unicode="&#x18f;" horiz-adv-x="667" 
d="M332 -12q-130 0 -204 89t-74 247q0 6 1.5 20.5t1.5 16.5h445q-12 210 -178 210q-82 0 -152 -63l-54 79q86 79 218 79q131 0 206.5 -88t75.5 -250t-77.5 -251t-208.5 -89zM332 83q71 0 114.5 48.5t53.5 143.5h-327q4 -94 46.5 -143t112.5 -49z" />
    <glyph glyph-name="uni0192" unicode="&#x192;" horiz-adv-x="513" 
d="M104 -97q-54 2 -80 16l18 85q21 -9 46 -9q41 1 59.5 34t27.5 115l20 182h-81v80l72 5h19l5 49q12 107 55 156.5t131 49.5q44 0 82 -18l-23 -87q-31 12 -51 12q-69 0 -82 -103l-7 -59h114v-85h-124l-24 -213q-12 -100 -51.5 -155t-125.5 -55z" />
    <glyph glyph-name="uni0193" unicode="&#x193;" horiz-adv-x="628" 
d="M357 -12q-137 0 -222.5 89t-85.5 248q0 157 87.5 249t221.5 92q34 0 71 -7q-3 13 -3 27q0 54 35.5 89.5t93.5 35.5q39 0 74 -13l-21 -86q-22 8 -31 8q-24 0 -38.5 -14t-14.5 -37q0 -28 32 -72l-62 -75q-59 43 -132 43q-88 0 -141 -64t-53 -173q0 -113 51.5 -176
t148.5 -63q62 0 94 29v141h-124v95h228v-288q-35 -35 -90 -56.5t-119 -21.5z" />
    <glyph glyph-name="Ohorn" unicode="&#x1a0;" horiz-adv-x="674" 
d="M339 -12q-129 0 -208.5 92.5t-79.5 249.5q0 156 79.5 246t208.5 90q75 0 135 -31q36 9 53 26.5t17 50.5q0 32 -15 62l87 36q27 -40 27 -90q0 -97 -111 -127q96 -91 96 -263q0 -157 -79.5 -249.5t-209.5 -92.5zM339 89q77 0 123 65.5t46 175.5q0 109 -45.5 172t-123.5 63
t-123.5 -63t-45.5 -172q0 -110 46 -175.5t123 -65.5z" />
    <glyph glyph-name="ohorn" unicode="&#x1a1;" horiz-adv-x="549" 
d="M274 -12q-96 0 -164.5 70t-68.5 187q0 118 68.5 188t164.5 70q51 0 96 -21q77 18 77 93q0 28 -15 56l86 39q27 -40 27 -87q0 -56 -32.5 -91t-82.5 -50q78 -73 78 -197q0 -118 -68.5 -187.5t-165.5 -69.5zM274 82q54 0 85 44.5t31 118.5q0 75 -31 119.5t-85 44.5
t-84.5 -44.5t-30.5 -119.5q0 -74 31 -118.5t84 -44.5z" />
    <glyph glyph-name="Uhorn" unicode="&#x1af;" horiz-adv-x="671" 
d="M328 -12q-248 0 -248 299v367h116v-376q0 -189 132 -189q136 0 136 189v376h51q41 3 63.5 20t22.5 58q0 32 -15 62l88 36q26 -41 26 -90q0 -106 -125 -131v-322q0 -299 -247 -299z" />
    <glyph glyph-name="uhorn" unicode="&#x1b0;" horiz-adv-x="556" 
d="M219 -12q-151 0 -151 195v308h115v-293q0 -60 18 -85.5t58 -25.5q32 0 56.5 15.5t52.5 52.5v336h34q38 5 60.5 25t22.5 69q0 28 -15 56l86 39q27 -38 27 -87q0 -56 -28.5 -91t-71.5 -49v-453h-94l-9 72h-3q-71 -84 -158 -84z" />
    <glyph glyph-name="uni01C2" unicode="&#x1c2;" horiz-adv-x="309" 
d="M6 331v54l77 5h37v360h77v-360h105v-59h-105v-125h105v-59h-105v-397h-77v397h-114v54l77 5h37v125h-114z" />
    <glyph glyph-name="uni01CD" unicode="&#x1cd;" horiz-adv-x="558" 
d="M217 348l-23 -80h167l-23 80q-15 49 -59 216h-4q-33 -134 -58 -216zM-2 0l213 654h136l213 -654h-122l-51 177h-220l-51 -177h-118zM215 704l-97 112l50 32l107 -88h4l107 88l50 -32l-97 -112h-124z" />
    <glyph glyph-name="uni01CE" unicode="&#x1ce;" horiz-adv-x="516" 
d="M192 -12q-65 0 -105 40t-40 104q0 79 69 122.5t220 59.5q-4 96 -90 96q-57 0 -138 -48l-42 77q102 64 202 64q91 0 137 -54t46 -158v-291h-95l-8 54h-4q-78 -66 -152 -66zM229 78q48 0 107 54v110q-96 -12 -137 -37t-41 -64q0 -63 71 -63zM211 576l-111 135l45 42
l122 -102h4l122 102l45 -42l-111 -135h-116z" />
    <glyph glyph-name="uni01CF" unicode="&#x1cf;" horiz-adv-x="282" 
d="M83 0v654h116v-654h-116zM79 704l-97 112l50 32l107 -88h4l107 88l50 -32l-97 -112h-124z" />
    <glyph glyph-name="uni01D0" unicode="&#x1d0;" horiz-adv-x="262" 
d="M73 0v491h115v-491h-115zM73 576l-111 135l45 42l122 -102h4l122 102l45 -42l-111 -135h-116z" />
    <glyph glyph-name="uni01D1" unicode="&#x1d1;" horiz-adv-x="674" 
d="M337 -12q-129 0 -208.5 92.5t-79.5 249.5q0 156 79.5 246t208.5 90q130 0 209.5 -90t79.5 -246q0 -157 -79.5 -249.5t-209.5 -92.5zM337 89q77 0 123 65.5t46 175.5q0 109 -45.5 172t-123.5 63t-123.5 -63t-45.5 -172q0 -110 46 -175.5t123 -65.5zM275 704l-97 112l50 32
l107 -88h4l107 88l50 -32l-97 -112h-124z" />
    <glyph glyph-name="uni01D2" unicode="&#x1d2;" horiz-adv-x="549" 
d="M274 -12q-96 0 -164.5 70t-68.5 187q0 118 68.5 188t164.5 70q97 0 165.5 -70t68.5 -188t-68.5 -187.5t-165.5 -69.5zM274 82q54 0 85 44.5t31 118.5q0 75 -31 119.5t-85 44.5t-84.5 -44.5t-30.5 -119.5q0 -74 31 -118.5t84 -44.5zM216 576l-111 135l45 42l122 -102h4
l122 102l45 -42l-111 -135h-116z" />
    <glyph glyph-name="uni01D3" unicode="&#x1d3;" horiz-adv-x="655" 
d="M328 -12q-248 0 -248 299v367h116v-376q0 -189 132 -189q136 0 136 189v376h111v-367q0 -299 -247 -299zM266 704l-97 112l50 32l107 -88h4l107 88l50 -32l-97 -112h-124z" />
    <glyph glyph-name="uni01D4" unicode="&#x1d4;" horiz-adv-x="556" 
d="M219 -12q-151 0 -151 195v308h115v-293q0 -60 18 -85.5t58 -25.5q32 0 56.5 15.5t52.5 52.5v336h115v-491h-94l-9 72h-3q-71 -84 -158 -84zM221 576l-111 135l45 42l122 -102h4l122 102l45 -42l-111 -135h-116z" />
    <glyph glyph-name="uni01D5" unicode="&#x1d5;" horiz-adv-x="655" 
d="M328 -12q-248 0 -248 299v367h116v-376q0 -189 132 -189q136 0 136 189v376h111v-367q0 -299 -247 -299zM221 708q-23 0 -38 15t-15 38t15 38.5t38 15.5t38.5 -15.5t15.5 -38.5t-15.5 -38t-38.5 -15zM185 866v58h286v-58h-286zM435 708q-23 0 -38.5 15t-15.5 38
t15.5 38.5t38.5 15.5t38 -15.5t15 -38.5t-15 -38t-38 -15z" />
    <glyph glyph-name="uni01D6" unicode="&#x1d6;" horiz-adv-x="556" 
d="M219 -12q-151 0 -151 195v308h115v-293q0 -60 18 -85.5t58 -25.5q32 0 56.5 15.5t52.5 52.5v336h115v-491h-94l-9 72h-3q-71 -84 -158 -84zM176 579q-23 0 -38 15.5t-15 38.5t15 38t38 15t38.5 -15t15.5 -38t-15.5 -38.5t-38.5 -15.5zM138 753v58h281v-58h-281zM382 579
q-23 0 -38.5 15.5t-15.5 38.5t15.5 38t38.5 15t38 -15t15 -38t-15 -38.5t-38 -15.5z" />
    <glyph glyph-name="uni01D7" unicode="&#x1d7;" horiz-adv-x="655" 
d="M328 -12q-248 0 -248 299v367h116v-376q0 -189 132 -189q136 0 136 189v376h111v-367q0 -299 -247 -299zM221 708q-23 0 -38 15t-15 38t15 38.5t38 15.5t38.5 -15.5t15.5 -38.5t-15.5 -38t-38.5 -15zM281 856l95 133l73 -47l-117 -118zM435 708q-23 0 -38.5 15t-15.5 38
t15.5 38.5t38.5 15.5t38 -15.5t15 -38.5t-15 -38t-38 -15z" />
    <glyph glyph-name="uni01D8" unicode="&#x1d8;" horiz-adv-x="556" 
d="M219 -12q-151 0 -151 195v308h115v-293q0 -60 18 -85.5t58 -25.5q32 0 56.5 15.5t52.5 52.5v336h115v-491h-94l-9 72h-3q-71 -84 -158 -84zM279 709l-46 30l80 124l64 -43zM176 579q-23 0 -38 15.5t-15 38.5t15 38t38 15t38.5 -15t15.5 -38t-15.5 -38.5t-38.5 -15.5z
M382 579q-23 0 -38.5 15.5t-15.5 38.5t15.5 38t38.5 15t38 -15t15 -38t-15 -38.5t-38 -15.5z" />
    <glyph glyph-name="uni01D9" unicode="&#x1d9;" horiz-adv-x="655" 
d="M328 -12q-248 0 -248 299v367h116v-376q0 -189 132 -189q136 0 136 189v376h111v-367q0 -299 -247 -299zM278 846l-95 100l46 33l97 -74h4l97 74l46 -33l-95 -100h-100zM221 708q-23 0 -38 15t-15 38t15 38.5t38 15.5t38.5 -15.5t15.5 -38.5t-15.5 -38t-38.5 -15z
M435 708q-23 0 -38.5 15t-15.5 38t15.5 38.5t38.5 15.5t38 -15.5t15 -38.5t-15 -38t-38 -15z" />
    <glyph glyph-name="uni01DA" unicode="&#x1da;" horiz-adv-x="556" 
d="M219 -12q-151 0 -151 195v308h115v-293q0 -60 18 -85.5t58 -25.5q32 0 56.5 15.5t52.5 52.5v336h115v-491h-94l-9 72h-3q-71 -84 -158 -84zM179 857l98 -69h4l98 69l39 -36l-93 -92h-92l-93 92zM176 579q-23 0 -38 15.5t-15 38.5t15 38t38 15t38.5 -15t15.5 -38
t-15.5 -38.5t-38.5 -15.5zM382 579q-23 0 -38.5 15.5t-15.5 38.5t15.5 38t38.5 15t38 -15t15 -38t-15 -38.5t-38 -15.5z" />
    <glyph glyph-name="uni01DB" unicode="&#x1db;" horiz-adv-x="655" 
d="M328 -12q-248 0 -248 299v367h116v-376q0 -189 132 -189q136 0 136 189v376h111v-367q0 -299 -247 -299zM375 856l-51 -32l-117 118l73 47zM221 708q-23 0 -38 15t-15 38t15 38.5t38 15.5t38.5 -15.5t15.5 -38.5t-15.5 -38t-38.5 -15zM435 708q-23 0 -38.5 15t-15.5 38
t15.5 38.5t38.5 15.5t38 -15.5t15 -38.5t-15 -38t-38 -15z" />
    <glyph glyph-name="uni01DC" unicode="&#x1dc;" horiz-adv-x="556" 
d="M219 -12q-151 0 -151 195v308h115v-293q0 -60 18 -85.5t58 -25.5q32 0 56.5 15.5t52.5 52.5v336h115v-491h-94l-9 72h-3q-71 -84 -158 -84zM279 709l-98 111l64 43l80 -124zM176 579q-23 0 -38 15.5t-15 38.5t15 38t38 15t38.5 -15t15.5 -38t-15.5 -38.5t-38.5 -15.5z
M382 579q-23 0 -38.5 15.5t-15.5 38.5t15.5 38t38.5 15t38 -15t15 -38t-15 -38.5t-38 -15.5z" />
    <glyph glyph-name="uni01E2" unicode="&#x1e2;" horiz-adv-x="834" 
d="M297 366l-51 -105h148v304h-4q-15 -31 -46 -98t-47 -101zM-3 0l327 654h449v-98h-263v-167h221v-98h-221v-193h273v-98h-389v170h-192l-83 -170h-122zM407 741v76h286v-76h-286z" />
    <glyph glyph-name="uni01E3" unicode="&#x1e3;" horiz-adv-x="785" 
d="M198 -12q-65 0 -105.5 40t-40.5 104q0 79 68.5 122.5t217.5 59.5q-4 96 -88 96q-57 0 -136 -48l-42 77q102 64 193 64q99 0 139 -89q64 89 153 89q91 0 141 -64.5t50 -170.5q0 -34 -5 -54h-300q6 -62 43.5 -98t91.5 -36q52 0 111 38l41 -77q-80 -53 -167 -53
q-101 0 -171 84q-98 -84 -194 -84zM234 78q62 0 120 58q-14 33 -16 83l-2 23q-172 -23 -172 -101q0 -63 70 -63zM443 287h206q0 60 -24.5 93.5t-71.5 33.5q-43 0 -73 -33.5t-37 -93.5zM272 596v76h280v-76h-280z" />
    <glyph glyph-name="Gcaron" unicode="&#x1e6;" horiz-adv-x="628" 
d="M357 -12q-137 0 -222.5 89t-85.5 248q0 157 87.5 249t221.5 92q117 0 198 -83l-62 -75q-59 57 -132 57q-88 0 -141 -64t-53 -173q0 -113 51.5 -176t148.5 -63q62 0 94 29v141h-124v95h228v-288q-35 -35 -90 -56.5t-119 -21.5zM298 704l-97 112l50 32l107 -88h4l107 88
l50 -32l-97 -112h-124z" />
    <glyph glyph-name="gcaron" unicode="&#x1e7;" horiz-adv-x="520" 
d="M244 -217q-92 0 -148 33t-56 95q0 61 70 105v4q-44 28 -44 82q0 52 54 91v4q-27 21 -45.5 55t-18.5 75q0 81 56.5 128.5t137.5 47.5q38 0 72 -12h176v-85h-90q28 -33 28 -83q0 -79 -52.5 -123t-133.5 -44q-35 0 -67 13q-24 -21 -24 -47q0 -45 80 -45h87q180 0 180 -121
q0 -74 -72 -123.5t-190 -49.5zM250 228q37 0 61 26.5t24 72.5q0 45 -24 71t-61 26t-61.5 -26t-24.5 -71q0 -46 24.5 -72.5t61.5 -26.5zM262 -142q58 0 95.5 23.5t37.5 55.5q0 27 -21.5 38t-65.5 11h-67q-40 0 -67 7q-38 -29 -38 -65q0 -33 33.5 -51.5t92.5 -18.5zM216 576
l-111 135l45 42l122 -102h4l122 102l45 -42l-111 -135h-116z" />
    <glyph glyph-name="uni01EA" unicode="&#x1ea;" horiz-adv-x="674" 
d="M364 -218q-45 0 -75 24t-30 67q0 64 63 116q-126 7 -199.5 98t-73.5 243q0 156 79.5 246t208.5 90q130 0 209.5 -90t79.5 -246q0 -131 -52 -210.5t-154 -125.5q-37 -16 -55.5 -41.5t-18.5 -50.5q0 -20 13 -31t31 -11q19 0 38 14l29 -60q-41 -32 -93 -32zM337 89
q77 0 123 65.5t46 175.5q0 109 -45.5 172t-123.5 63t-123.5 -63t-45.5 -172q0 -110 46 -175.5t123 -65.5z" />
    <glyph glyph-name="uni01EB" unicode="&#x1eb;" horiz-adv-x="549" 
d="M296 -208q-42 0 -70 23t-28 65q0 62 55 110q-90 8 -151 76.5t-61 178.5q0 118 68.5 188t164.5 70q97 0 165.5 -70t68.5 -188q0 -94 -41.5 -152.5t-119.5 -94.5q-34 -16 -51.5 -41.5t-17.5 -51.5q0 -20 13 -31t31 -11q20 0 38 13l26 -54q-37 -30 -90 -30zM274 82
q54 0 85 44.5t31 118.5q0 75 -31 119.5t-85 44.5t-84.5 -44.5t-30.5 -119.5q0 -74 31 -118.5t84 -44.5z" />
    <glyph glyph-name="uni01F4" unicode="&#x1f4;" horiz-adv-x="628" 
d="M357 -12q-137 0 -222.5 89t-85.5 248q0 157 87.5 249t221.5 92q117 0 198 -83l-62 -75q-59 57 -132 57q-88 0 -141 -64t-53 -173q0 -113 51.5 -176t148.5 -63q62 0 94 29v141h-124v95h228v-288q-35 -35 -90 -56.5t-119 -21.5zM346 688l-51 58l157 135l62 -76z" />
    <glyph glyph-name="uni01F5" unicode="&#x1f5;" horiz-adv-x="520" 
d="M244 -217q-92 0 -148 33t-56 95q0 61 70 105v4q-44 28 -44 82q0 52 54 91v4q-27 21 -45.5 55t-18.5 75q0 81 56.5 128.5t137.5 47.5q38 0 72 -12h176v-85h-90q28 -33 28 -83q0 -79 -52.5 -123t-133.5 -44q-35 0 -67 13q-24 -21 -24 -47q0 -45 80 -45h87q180 0 180 -121
q0 -74 -72 -123.5t-190 -49.5zM250 228q37 0 61 26.5t24 72.5q0 45 -24 71t-61 26t-61.5 -26t-24.5 -71q0 -46 24.5 -72.5t61.5 -26.5zM262 -142q58 0 95.5 23.5t37.5 55.5q0 27 -21.5 38t-65.5 11h-67q-40 0 -67 7q-38 -29 -38 -65q0 -33 33.5 -51.5t92.5 -18.5zM272 573
l-57 57l147 174l80 -76z" />
    <glyph glyph-name="uni01F8" unicode="&#x1f8;" horiz-adv-x="656" 
d="M83 0v654h119l204 -368l67 -139h4q-1 17 -5.5 66t-7 86.5t-2.5 70.5v284h111v-654h-119l-204 368l-67 139h-4q1 -20 5.5 -67t7 -84t2.5 -70v-286h-111zM344 688l-168 117l62 76l157 -135z" />
    <glyph glyph-name="uni01F9" unicode="&#x1f9;" horiz-adv-x="560" 
d="M73 0v491h95l8 -66h4q80 78 161 78q151 0 151 -195v-308h-115v293q0 60 -18 85.5t-59 25.5q-30 0 -54 -14t-58 -47v-343h-115zM302 573l-170 155l80 76l147 -174z" />
    <glyph glyph-name="uni01FC" unicode="&#x1fc;" horiz-adv-x="834" 
d="M297 366l-51 -105h148v304h-4q-15 -31 -46 -98t-47 -101zM-3 0l327 654h449v-98h-263v-167h221v-98h-221v-193h273v-98h-389v170h-192l-83 -170h-122zM536 701l-51 58l157 135l62 -76z" />
    <glyph glyph-name="uni01FD" unicode="&#x1fd;" horiz-adv-x="785" 
d="M198 -12q-65 0 -105.5 40t-40.5 104q0 79 68.5 122.5t217.5 59.5q-4 96 -88 96q-57 0 -136 -48l-42 77q102 64 193 64q99 0 139 -89q64 89 153 89q91 0 141 -64.5t50 -170.5q0 -34 -5 -54h-300q6 -62 43.5 -98t91.5 -36q52 0 111 38l41 -77q-80 -53 -167 -53
q-101 0 -171 84q-98 -84 -194 -84zM234 78q62 0 120 58q-14 33 -16 83l-2 23q-172 -23 -172 -101q0 -63 70 -63zM443 287h206q0 60 -24.5 93.5t-71.5 33.5q-43 0 -73 -33.5t-37 -93.5zM410 573l-57 57l147 174l80 -76z" />
    <glyph glyph-name="uni0218" unicode="&#x218;" horiz-adv-x="545" 
d="M274 -12q-138 0 -236 96l68 79q79 -74 170 -74q55 0 84.5 22.5t29.5 61.5q0 26 -15 44.5t-31.5 27t-54.5 24.5l-90 39q-132 56 -132 174q0 79 62.5 131.5t157.5 52.5q118 0 201 -83l-59 -74q-67 56 -142 56q-47 0 -75 -20.5t-28 -56.5q0 -24 17 -42.5t33.5 -26.5
t53.5 -23l89 -37q63 -27 97.5 -68.5t34.5 -108.5q0 -82 -64 -138t-171 -56zM182 -233l-10 50q59 4 82.5 14t23.5 29q0 33 -68 39l24 46q71 -7 100 -25.5t29 -54.5q0 -90 -181 -98z" />
    <glyph glyph-name="uni0219" unicode="&#x219;" horiz-adv-x="431" 
d="M210 -12q-102 0 -186 68l54 74q71 -55 136 -55q38 0 58 16t20 43q0 15 -7.5 26t-27.5 22t-30 15l-40 16q-62 23 -100 55.5t-38 87.5q0 65 48.5 106t130.5 41q87 0 163 -59l-53 -70q-57 42 -108 42q-35 0 -53.5 -15t-18.5 -39q0 -17 14.5 -30.5t31.5 -21t47 -18.5l9 -3
q32 -12 51.5 -21.5t43 -27t35 -42.5t11.5 -58q0 -66 -50.5 -109t-140.5 -43zM134 -233l-10 50q59 4 82.5 14t23.5 29q0 33 -68 39l24 46q71 -7 100 -25.5t29 -54.5q0 -90 -181 -98z" />
    <glyph glyph-name="uni021A" unicode="&#x21a;" horiz-adv-x="546" 
d="M215 0v556h-189v98h494v-98h-189v-556h-116zM180 -233l-10 50q59 4 82.5 14t23.5 29q0 33 -68 39l24 46q71 -7 100 -25.5t29 -54.5q0 -90 -181 -98z" />
    <glyph glyph-name="uni021B" unicode="&#x21b;" horiz-adv-x="361" 
d="M246 -12q-156 0 -156 178v234h-70v86l76 5l14 134h96v-134h125v-91h-125v-234q0 -86 69 -86q25 0 51 11l20 -85q-54 -18 -100 -18zM130 -233l-10 50q59 4 82.5 14t23.5 29q0 33 -68 39l24 46q71 -7 100 -25.5t29 -54.5q0 -90 -181 -98z" />
    <glyph glyph-name="uni0237" unicode="&#x237;" horiz-adv-x="263" 
d="M34 -206q-45 0 -80 13l22 86q26 -8 42 -8q32 0 44 21.5t12 66.5v518h116v-516q0 -181 -156 -181z" />
    <glyph glyph-name="uni0243" unicode="&#x243;" horiz-adv-x="616" 
d="M104 0v176h-76v54l76 5v419h209q233 0 233 -158q0 -47 -28.5 -83t-83.5 -50v-4q147 -27 147 -161q0 -97 -69 -147.5t-182 -50.5h-226zM220 389h82q133 0 133 96q0 85 -130 85h-85v-181zM220 84h98q73 0 112.5 31t39.5 91q0 112 -152 112h-98v-83h138v-59h-138v-92z" />
    <glyph glyph-name="uni0250" unicode="&#x250;" horiz-adv-x="523" 
d="M274 -12q-104 0 -156 56.5t-52 162.5v284h95l9 -64h3q71 76 165 76q60 0 96 -36t36 -95q0 -83 -69.5 -131t-218.5 -65q4 -95 108 -95q54 0 133 48l42 -77q-96 -64 -191 -64zM182 249q96 13 136.5 39t40.5 66q0 29 -17.5 44t-45.5 15q-57 0 -114 -64v-100z" />
    <glyph glyph-name="uni0251" unicode="&#x251;" horiz-adv-x="564" 
d="M245 -12q-93 0 -147.5 68t-54.5 189q0 115 63 186.5t148 71.5q73 0 133 -60h3l9 48h92v-491h-95l-8 53h-4q-65 -65 -139 -65zM273 83q55 0 103 55v229q-46 41 -100 41q-49 0 -81.5 -43.5t-32.5 -118.5q0 -79 29 -121t82 -42z" />
    <glyph glyph-name="uni0252" unicode="&#x252;" horiz-adv-x="564" 
d="M311 -12q-69 0 -134 60h-3l-9 -48h-92v491h95l8 -53h4q74 65 148 65q91 0 142 -67.5t51 -182.5q0 -121 -62 -193t-148 -72zM287 83q51 0 83 44t32 125q0 156 -106 156q-52 0 -108 -55v-229q49 -41 99 -41z" />
    <glyph glyph-name="uni0253" unicode="&#x253;" horiz-adv-x="564" 
d="M311 -12q-70 0 -134 62h-3l-10 -50h-91v518q0 90 46.5 145t140.5 55q49 0 91 -17l-23 -86q-27 12 -53 12q-82 0 -88 -107l-2 -90q69 61 142 61q91 0 142.5 -65.5t51.5 -177.5q0 -119 -62 -189.5t-148 -70.5zM287 83q51 0 83 42.5t32 120.5q0 150 -106 150q-52 0 -108 -55
v-217q48 -41 99 -41z" />
    <glyph glyph-name="uni0254" unicode="&#x254;" horiz-adv-x="462" 
d="M184 -12q-91 0 -160 60l46 76q51 -42 102 -42q57 0 93.5 45t36.5 118t-35 118.5t-89 45.5q-50 0 -91 -36l-56 75q66 55 160 55q97 0 163.5 -69t66.5 -189q0 -119 -67.5 -188t-169.5 -69z" />
    <glyph glyph-name="uni0255" unicode="&#x255;" horiz-adv-x="462" 
d="M289 77q30 0 49.5 13.5t19.5 33.5q0 16 -11.5 28t-33.5 12q-47 0 -97 -63q32 -24 73 -24zM130 -71l-90 39q22 58 53 109q-52 68 -52 168q0 118 71.5 188t174.5 70q80 0 144 -55l-53 -70q-41 36 -85 36q-63 0 -101.5 -46.5t-38.5 -122.5q0 -39 13 -75q77 72 156 72
q58 0 91 -31.5t33 -85.5q0 -59 -43.5 -98t-116.5 -39q-67 0 -122 29q-20 -44 -34 -88z" />
    <glyph glyph-name="uni0256" unicode="&#x256;" horiz-adv-x="564" 
d="M521 -185q-70 0 -106 39.5t-36 104.5l1 90q-64 -61 -135 -61q-93 0 -147.5 68t-54.5 189q0 115 62 186.5t146 71.5q67 0 129 -54l-4 79v190h115v-732q0 -41 10.5 -60t35.5 -19q15 0 33 7l21 -86q-30 -13 -70 -13zM273 83q55 0 103 55v229q-46 41 -100 41
q-49 0 -81.5 -43.5t-32.5 -118.5q0 -79 29 -121t82 -42z" />
    <glyph glyph-name="uni0257" unicode="&#x257;" horiz-adv-x="564" 
d="M245 -12q-93 0 -147.5 68t-54.5 189q0 115 62 186.5t146 71.5q67 0 129 -54l-1 107q0 75 37 119t114 44q36 0 63 -10l-21 -86q-13 5 -26 5q-55 0 -55 -82v-546h-95l-8 53h-4q-65 -65 -139 -65zM273 83q55 0 103 55v229q-46 41 -100 41q-49 0 -81.5 -43.5t-32.5 -118.5
q0 -79 29 -121t82 -42z" />
    <glyph glyph-name="uni0258" unicode="&#x258;" horiz-adv-x="507" 
d="M228 -12q-93 0 -172 53l39 72q56 -36 118 -36q60 0 96.5 35.5t44.5 101.5h-312q-5 20 -5 56q0 104 57.5 168.5t155.5 64.5q91 0 153.5 -70.5t62.5 -187.5q0 -119 -66.5 -188t-171.5 -69zM136 292h219q-7 59 -35.5 90.5t-73.5 31.5q-51 0 -80.5 -32.5t-29.5 -89.5z" />
    <glyph glyph-name="uni0259" unicode="&#x259;" horiz-adv-x="507" 
d="M244 -12q-97 0 -152 64.5t-55 172.5q0 37 5 57h312q-7 63 -40.5 97.5t-89.5 34.5q-59 0 -117 -37l-39 76q74 50 175 50q98 0 160.5 -69.5t62.5 -187.5q0 -117 -64 -187.5t-158 -70.5zM241 77q47 0 77 32.5t37 94.5h-219q0 -61 27 -94t78 -33z" />
    <glyph glyph-name="uni025A" unicode="&#x25a;" horiz-adv-x="678" 
d="M254 -12q-100 0 -155.5 62.5t-61.5 156.5l305 128q-31 79 -118 79q-58 0 -116 -37l-39 76q74 50 169 50q145 0 202 -127l86 36l58 -22q3 -54 14 -73.5t34 -19.5q21 0 40 13l26 -57q-35 -25 -71 -25q-86 0 -109 96l-56 -23q5 -33 5 -62q0 -106 -59.5 -178.5t-153.5 -72.5z
M251 76q48 0 78 43.5t30 109.5q0 19 -1 28l-217 -91q8 -42 38 -66t72 -24z" />
    <glyph glyph-name="uni025B" unicode="&#x25b;" horiz-adv-x="451" 
d="M259 -12q-88 0 -149.5 40.5t-61.5 109.5q0 93 106 120v4q-39 13 -60.5 42t-21.5 63q0 67 54 101.5t136 34.5q84 0 154 -47l-44 -75q-55 33 -105 33q-36 0 -58.5 -16.5t-22.5 -45.5q0 -60 90 -60h62v-78h-77q-99 0 -99 -65q0 -33 30 -52.5t79 -19.5q58 0 114 38l46 -75
q-77 -52 -172 -52z" />
    <glyph glyph-name="uni025C" unicode="&#x25c;" horiz-adv-x="466" 
d="M213 -12q-97 0 -178 52l47 75q56 -38 113 -38q49 0 79.5 19.5t30.5 52.5q0 65 -100 65h-76v78h61q90 0 90 60q0 29 -21 45.5t-57 16.5q-53 0 -108 -33l-43 75q73 47 162 47q79 0 130 -34.5t51 -101.5q0 -34 -21 -63t-60 -42v-4q105 -27 105 -120q0 -69 -59.5 -109.5
t-145.5 -40.5z" />
    <glyph glyph-name="uni025E" unicode="&#x25e;" horiz-adv-x="556" 
d="M264 -12q-91 0 -153.5 40.5t-62.5 109.5q0 93 106 120v4q-39 13 -60.5 42t-21.5 63q0 67 54 101.5t137 34.5q108 0 181 -67.5t73 -190.5t-71.5 -190t-181.5 -67zM265 77q64 0 98.5 42.5t34.5 125.5t-34.5 126t-97.5 43q-35 0 -57.5 -16.5t-22.5 -45.5q0 -60 84 -60h30
v-78h-45q-93 0 -93 -65q0 -33 28 -52.5t75 -19.5z" />
    <glyph glyph-name="uni025F" unicode="&#x25f;" horiz-adv-x="296" 
d="M50 -206q-45 0 -80 13l22 86q26 -8 42 -8q32 0 44 21.5t12 66.5v254h-80v54l80 5v205h116v-205h76v-59h-76v-252q0 -181 -156 -181z" />
    <glyph glyph-name="uni0260" unicode="&#x260;" horiz-adv-x="571" 
d="M260 -205q-97 0 -180 54l40 78q66 -41 140 -41q114 0 119 104l3 76q-60 -57 -134 -57q-91 0 -146 67t-55 178q0 110 63 179.5t147 69.5q63 0 125 -54v37q0 68 37.5 111.5t114.5 43.5q36 0 63 -10l-21 -86q-13 5 -26 5q-56 0 -56 -82v-478q0 -93 -61 -144t-173 -51z
M277 103q55 0 102 56v208q-45 41 -100 41q-49 0 -82 -42t-33 -111q0 -71 30 -111.5t83 -40.5z" />
    <glyph glyph-name="uni0261" unicode="&#x261;" horiz-adv-x="571" 
d="M260 -205q-97 0 -180 54l40 78q66 -41 140 -41q114 0 119 104l3 76q-60 -57 -134 -57q-91 0 -146 67t-55 178q0 110 63 179.5t147 69.5q74 0 131 -57h4l8 45h94v-501q0 -93 -61 -144t-173 -51zM277 103q55 0 102 56v208q-45 41 -100 41q-49 0 -82 -42t-33 -111
q0 -71 30 -111.5t83 -40.5z" />
    <glyph glyph-name="uni0262" unicode="&#x262;" horiz-adv-x="507" 
d="M284 -12q-104 0 -173.5 67t-69.5 190q0 118 72 188t175 70q91 0 164 -60l-54 -70q-18 14 -29.5 21.5t-31 13.5t-42.5 6q-59 0 -98.5 -44.5t-39.5 -124.5q0 -78 37 -123t99 -45q42 0 69 22v102h-95v79h195v-229q-70 -63 -178 -63z" />
    <glyph glyph-name="uni0263" unicode="&#x263;" horiz-adv-x="495" 
d="M250 -217q-61 0 -96.5 35.5t-35.5 94.5q0 34 12.5 65.5t44.5 90.5l-163 422h117l78 -233q6 -21 20 -59t21 -61h4q7 23 21 61.5t21 58.5l78 233h111l-159 -420q23 -43 33 -62.5t18 -45.5t8 -50q0 -59 -36 -94.5t-97 -35.5zM250 -142q37 0 37 47q0 46 -35 113h-5
q-33 -69 -33 -113q0 -21 9.5 -34t26.5 -13z" />
    <glyph glyph-name="uni0264" unicode="&#x264;" horiz-adv-x="541" 
d="M270 -12q-87 0 -136 45.5t-49 129.5q0 91 107 193q-45 53 -95 53q-28 0 -47 -14l-34 84q35 24 96 24q86 0 158 -83q72 83 158 83q62 0 97 -24l-34 -84q-19 14 -47 14q-51 0 -95 -53q107 -103 107 -193q0 -83 -49 -129t-137 -46zM270 82q37 0 57 23.5t20 60.5
q0 65 -77 137q-76 -72 -76 -137q0 -38 19.5 -61t56.5 -23z" />
    <glyph glyph-name="uni0265" unicode="&#x265;" horiz-adv-x="560" 
d="M371 -194v162l6 100q-73 -80 -158 -80q-151 0 -151 195v308h115v-293q0 -60 18 -85.5t58 -25.5q32 0 57.5 15.5t54.5 52.5v336h115v-685h-115z" />
    <glyph glyph-name="uni0266" unicode="&#x266;" horiz-adv-x="558" 
d="M73 0v518q0 90 46.5 145t140.5 55q49 0 91 -17l-23 -86q-27 12 -53 12q-82 0 -88 -107l-3 -103q78 74 157 74q151 0 151 -195v-296h-115v281q0 60 -18 85.5t-59 25.5q-30 0 -54 -14t-58 -47v-331h-115z" />
    <glyph glyph-name="uni0267" unicode="&#x267;" horiz-adv-x="558" 
d="M336 -185q-44 0 -79 13l21 86q23 -7 42 -7q32 0 44.5 21t12.5 66v287q0 60 -18 85.5t-59 25.5q-30 0 -54 -14t-58 -47v-331h-115v518q0 90 46.5 145t140.5 55q49 0 91 -17l-23 -86q-27 12 -53 12q-82 0 -88 -107l-3 -103q78 74 157 74q151 0 151 -195v-300
q0 -181 -156 -181z" />
    <glyph glyph-name="uni0268" unicode="&#x268;" horiz-adv-x="296" 
d="M10 227v54l80 5v205h115v-205h77v-59h-77v-227h-115v227h-80zM148 577q-31 0 -51 18.5t-20 46.5q0 29 20 47.5t51 18.5t51 -18.5t20 -47.5q0 -28 -20 -46.5t-51 -18.5z" />
    <glyph glyph-name="uni026A" unicode="&#x26a;" horiz-adv-x="369" 
d="M49 0v92h78v308h-78v91h271v-91h-78v-308h78v-92h-271z" />
    <glyph glyph-name="uni026C" unicode="&#x26c;" horiz-adv-x="340" 
d="M129 305q-68 0 -102.5 26.5t-34.5 69.5q0 38 26 63.5t66 25.5q33 0 54 -18v234h115v-342h77v-59h-77v-185q0 -38 25 -38q9 0 18 2l15 -86q-23 -10 -61 -10q-112 0 -112 138v179h-9zM117 364h21v4q0 25 -11 44.5t-37 19.5q-32 0 -32 -31q0 -16 15 -26.5t44 -10.5z" />
    <glyph glyph-name="uni026D" unicode="&#x26d;" horiz-adv-x="271" 
d="M219 -185q-146 0 -146 173v718h115v-720q0 -79 47 -79q15 0 32 7l21 -86q-30 -13 -69 -13z" />
    <glyph glyph-name="uni026E" unicode="&#x26e;" horiz-adv-x="609" 
d="M372 -206q-119 0 -202 79l54 72q63 -57 135 -57q50 0 82 34.5t32 91.5q0 53 -30.5 83t-84.5 30q-26 0 -60 -14l-41 58l171 229h-240v-400h-115v706h115v-215h379v-61l-169 -224q88 1 139.5 -51.5t51.5 -136.5q0 -104 -63 -164t-154 -60z" />
    <glyph glyph-name="uni026F" unicode="&#x26f;" horiz-adv-x="843" 
d="M222 -12q-152 0 -152 195v308h115v-293q0 -60 18 -85.5t58 -25.5q46 0 103 61v343h115v-293q0 -60 18 -85.5t57 -25.5q46 0 103 61v343h115v-491h-94l-9 67h-3q-77 -79 -151 -79q-100 0 -135 88q-83 -88 -158 -88z" />
    <glyph glyph-name="uni0270" unicode="&#x270;" horiz-adv-x="843" 
d="M657 -194v161l6 99q-73 -78 -148 -78q-100 0 -135 88q-83 -88 -158 -88q-152 0 -152 195v308h115v-293q0 -60 18 -85.5t58 -25.5q46 0 103 61v343h115v-293q0 -60 18 -85.5t57 -25.5q46 0 103 61v343h115v-685h-115z" />
    <glyph glyph-name="uni0271" unicode="&#x271;" horiz-adv-x="843" 
d="M626 -185q-41 0 -74 13l22 86q18 -7 36 -7q29 0 39.5 21t10.5 66v299q0 60 -18 85.5t-57 25.5q-46 0 -103 -61v-343h-115v293q0 60 -18 85.5t-58 25.5q-46 0 -103 -61v-343h-115v491h95l8 -67h4q74 79 150 79q99 0 136 -88q83 88 158 88q152 0 152 -195v-312
q0 -181 -150 -181z" />
    <glyph glyph-name="uni0272" unicode="&#x272;" horiz-adv-x="560" 
d="M43 -185q-40 0 -70 13l21 86q17 -7 33 -7q25 0 35.5 19t10.5 60v505h96l7 -66h4q80 78 161 78q151 0 151 -195v-308h-115v293q0 60 -18 85.5t-59 25.5q-30 0 -54 -14t-58 -47v-355q0 -173 -145 -173z" />
    <glyph glyph-name="uni0273" unicode="&#x273;" horiz-adv-x="560" 
d="M522 -185q-145 0 -145 173v305q0 60 -18 85.5t-59 25.5q-30 0 -54 -14t-58 -47v-343h-115v491h95l8 -66h4q80 78 161 78q151 0 151 -195v-322q0 -41 10.5 -60t35.5 -19q16 0 33 7l21 -86q-30 -13 -70 -13z" />
    <glyph glyph-name="uni0274" unicode="&#x274;" horiz-adv-x="552" 
d="M73 0v491h107l144 -241q9 -17 28.5 -55.5t24.5 -48.5h4q-10 122 -10 176v169h108v-491h-107l-144 242q-6 9 -53 104h-4q10 -126 10 -177v-169h-108z" />
    <glyph glyph-name="uni0275" unicode="&#x275;" horiz-adv-x="549" 
d="M274 -12q-98 0 -165.5 68t-67.5 189q0 122 67 190t166 68t166.5 -68t67.5 -190q0 -121 -67.5 -189t-166.5 -68zM274 416q-49 0 -80.5 -32.5t-41.5 -91.5h245q-10 59 -42 91.5t-81 32.5zM274 76q52 0 85 36t40 102h-249q7 -66 39.5 -102t84.5 -36z" />
    <glyph glyph-name="uni0276" unicode="&#x276;" horiz-adv-x="713" 
d="M289 -12q-105 0 -176.5 67t-71.5 190q0 122 72 190t176 68q55 0 109 -12h282v-85h-217v-114h183v-78h-183v-130h227v-84h-292q-52 -12 -109 -12zM295 80q22 0 54 9v312q-32 9 -54 9q-59 0 -97 -42t-38 -123q0 -84 38 -124.5t97 -40.5z" />
    <glyph glyph-name="uni0278" unicode="&#x278;" horiz-adv-x="710" 
d="M159 246q0 -75 40 -119.5t103 -48.5v335q-63 -3 -103 -47.5t-40 -119.5zM550 246q0 77 -38.5 120.5t-103.5 46.5v-335q63 4 102.5 48.5t39.5 119.5zM302 -194v185q-108 5 -184.5 73t-76.5 182t76 181.5t185 72.5v206h106v-206q109 -5 185 -72.5t76 -181.5t-76.5 -182
t-184.5 -73v-185h-106z" />
    <glyph glyph-name="uni0279" unicode="&#x279;" horiz-adv-x="373" 
d="M54 -12q-35 0 -56 10l20 100q29 -8 51 -8q32 0 63.5 24.5t52.5 77.5v299h115v-491h-94l-9 88h-3q-26 -48 -63 -74t-77 -26z" />
    <glyph glyph-name="uni027A" unicode="&#x27a;" horiz-adv-x="373" 
d="M54 -12q-35 0 -56 10l20 100q29 -8 51 -8q32 0 63.5 24.5t52.5 77.5v514h115v-706h-94l-9 88h-3q-26 -48 -63 -74t-77 -26z" />
    <glyph glyph-name="uni027B" unicode="&#x27b;" horiz-adv-x="373" 
d="M330 -185q-133 0 -133 157v116h-3q-26 -48 -63 -74t-77 -26q-35 0 -56 10l20 100q29 -8 51 -8q32 0 63.5 24.5t52.5 77.5v299h115v-505q0 -41 10.5 -60t35.5 -19q15 0 33 7l21 -86q-30 -13 -70 -13z" />
    <glyph glyph-name="uni027D" unicode="&#x27d;" horiz-adv-x="373" 
d="M219 -185q-146 0 -146 173v503h95l8 -87h4q26 47 62.5 73t76.5 26q35 0 56 -10l-20 -100q-27 8 -51 8q-32 0 -63.5 -24.5t-52.5 -76.5v-314q0 -79 47 -79q15 0 32 7l21 -86q-30 -13 -69 -13z" />
    <glyph glyph-name="uni027E" unicode="&#x27e;" horiz-adv-x="357" 
d="M73 0v309q0 88 48 141t139 53q63 0 99 -14l-19 -97q-31 11 -65 11q-35 0 -61 -30t-26 -89v-284h-115z" />
    <glyph glyph-name="uni0280" unicode="&#x280;" horiz-adv-x="514" 
d="M73 0v491h189q194 0 194 -154q0 -101 -92 -141l127 -196h-128l-102 176h-73v-176h-115zM188 257h58q46 0 71 20.5t25 56.5q0 71 -96 71h-58v-148z" />
    <glyph glyph-name="uni0281" unicode="&#x281;" horiz-adv-x="514" 
d="M252 0q-89 0 -141.5 37t-52.5 118q0 100 92 141l-127 195h128l103 -175h72v175h115v-491h-189zM268 86h58v150h-58q-46 0 -71 -21t-25 -57q0 -72 96 -72z" />
    <glyph glyph-name="uni0282" unicode="&#x282;" horiz-adv-x="431" 
d="M210 -12q-44 0 -84 12v-6q0 -45 13 -67.5t45 -22.5q16 0 42 8l22 -84q-35 -13 -80 -13q-144 0 -144 181v54l54 73q66 -48 136 -48q38 0 58 16t20 43q0 15 -7.5 26t-27.5 22t-30 15l-40 16q-62 23 -100 55.5t-38 87.5q0 65 48.5 106t130.5 41q87 0 163 -59l-53 -70
q-57 42 -108 42q-35 0 -53.5 -15t-18.5 -39q0 -17 14.5 -30.5t31.5 -21t47 -18.5l9 -3q32 -12 51.5 -21.5t43 -27t35 -42.5t11.5 -58q0 -66 -50.5 -109t-140.5 -43z" />
    <glyph glyph-name="uni0283" unicode="&#x283;" horiz-adv-x="263" 
d="M34 -206q-45 0 -80 13l22 86q26 -8 42 -8q32 0 44 21.5t12 66.5v565q0 181 166 181q38 0 70 -13l-22 -86q-20 8 -32 8q-37 0 -51.5 -21.5t-14.5 -66.5v-565q0 -181 -156 -181z" />
    <glyph glyph-name="uni0284" unicode="&#x284;" horiz-adv-x="296" 
d="M50 -206q-45 0 -80 13l22 86q26 -8 42 -8q32 0 44 21.5t12 66.5v254h-80v54l80 5v252q0 181 166 181q38 0 70 -13l-22 -86q-20 8 -32 8q-37 0 -51.5 -21.5t-14.5 -66.5v-254h76v-59h-76v-252q0 -181 -156 -181z" />
    <glyph glyph-name="uni0288" unicode="&#x288;" horiz-adv-x="361" 
d="M246 -186q-156 0 -156 178v408h-70v86l76 5l14 134h96v-134h125v-91h-125v-408q0 -86 69 -86q20 0 51 11l20 -85q-61 -18 -100 -18z" />
    <glyph glyph-name="uni0289" unicode="&#x289;" horiz-adv-x="596" 
d="M10 265v54l81 5v167h115v-167h185v167h115v-167h76v-59h-76v-265h-94l-9 72h-3q-71 -84 -158 -84q-151 0 -151 195v82h-81zM282 87q32 0 56.5 15.5t52.5 52.5v110h-185v-67q0 -60 18 -85.5t58 -25.5z" />
    <glyph glyph-name="uni028A" unicode="&#x28a;" horiz-adv-x="550" 
d="M275 -12q-105 0 -168 64.5t-63 152.5q0 115 79 192v3h-90v91h200v-74q-73 -75 -73 -187q0 -64 30 -106t85 -42t85 42t30 106q0 112 -73 187v74h199v-91h-89v-3q79 -77 79 -192q0 -88 -63 -152.5t-168 -64.5z" />
    <glyph glyph-name="uni028B" unicode="&#x28b;" horiz-adv-x="541" 
d="M268 -12q-93 0 -146.5 56.5t-53.5 165.5v281h115v-277q0 -67 24 -99.5t66 -32.5q50 0 78 53t28 141q0 137 -65 137q-9 0 -24 -5l-15 87q24 8 63 8q74 0 117 -52.5t43 -157.5q0 -138 -59.5 -221.5t-170.5 -83.5z" />
    <glyph glyph-name="uni028C" unicode="&#x28c;" horiz-adv-x="495" 
d="M12 0l167 491h133l171 -491h-117l-78 255q-6 21 -20 71t-21 77h-4q-5 -16 -19.5 -68.5t-22.5 -79.5l-78 -255h-111z" />
    <glyph glyph-name="uni028D" unicode="&#x28d;" horiz-adv-x="748" 
d="M24 0l124 491h137l58 -229q13 -60 29 -143h4q21 110 30 144l55 228h133l130 -491h-116l-60 255q-5 25 -13 71.5t-12 69.5h-4q-23 -110 -31 -141l-65 -255h-104l-66 255q-7 28 -18.5 80t-13.5 61h-4q-5 -23 -13.5 -70t-13.5 -71l-58 -255h-108z" />
    <glyph glyph-name="uni028E" unicode="&#x28e;" horiz-adv-x="495" 
d="M12 0l187 539q33 90 78.5 134.5t121.5 44.5q34 0 64 -10l-21 -89q-23 7 -36 7q-69 0 -98 -84l-18 -57l193 -485h-117l-85 241q-11 31 -43 139h-4q-20 -77 -38 -139l-73 -241h-111z" />
    <glyph glyph-name="uni028F" unicode="&#x28f;" horiz-adv-x="441" 
d="M164 0v157l-168 334h121l55 -122q7 -17 48 -115h4q8 20 24 57.5t24 57.5l53 122h121l-167 -334v-157h-115z" />
    <glyph glyph-name="uni0290" unicode="&#x290;" horiz-adv-x="443" 
d="M438 -185q-75 0 -110 44.5t-35 116.5v24h-259v62l232 338h-206v91h350v-61l-231 -338h229v-106q0 -41 10.5 -60t35.5 -19q16 0 33 7l21 -86q-30 -13 -70 -13z" />
    <glyph glyph-name="uni0291" unicode="&#x291;" horiz-adv-x="477" 
d="M263 -81l-60 12q6 28 17 69h-186v62l232 338h-206v91h343v-61l-231 -338q26 -2 78 -4q58 145 143 145q46 0 72 -26t26 -75q0 -58 -42.5 -95t-123.5 -37h-43q-9 -31 -19 -81zM355 86q33 0 51.5 14.5t18.5 34.5q0 34 -35 34q-42 0 -78 -83h43z" />
    <glyph glyph-name="uni0292" unicode="&#x292;" horiz-adv-x="443" 
d="M206 -206q-119 0 -202 79l54 72q63 -57 135 -57q50 0 82 34.5t32 91.5q0 53 -30.5 83t-84.5 30q-26 0 -60 -14l-41 58l171 229h-221v91h360v-61l-169 -224q88 1 139.5 -51.5t51.5 -136.5q0 -104 -63 -164t-154 -60z" />
    <glyph glyph-name="uni0294" unicode="&#x294;" horiz-adv-x="433" 
d="M137 0v320q88 55 124.5 98t36.5 98q0 50 -28.5 79t-79.5 29q-75 0 -136 -68l-58 74q82 88 205 88q92 0 152.5 -52t60.5 -146q0 -78 -40 -132.5t-122 -113.5v-274h-115z" />
    <glyph glyph-name="uni0295" unicode="&#x295;" horiz-adv-x="475" 
d="M198 0v274q-53 39 -85 70t-54.5 77t-22.5 99q0 94 64 146t160 52q114 0 195 -88l-59 -74q-55 68 -125 68q-55 0 -87 -29t-32 -79q0 -55 36.5 -98t125.5 -98v-320h-116z" />
    <glyph glyph-name="uni0298" unicode="&#x298;" horiz-adv-x="541" 
d="M270 -12q-101 0 -158.5 92.5t-57.5 275.5q0 177 58 269.5t158 92.5q101 0 159 -93t58 -269q0 -183 -58 -275.5t-159 -92.5zM270 82q50 0 80.5 64.5t30.5 209.5q0 137 -31 202.5t-80 65.5q-48 0 -79 -66t-31 -202q0 -144 30.5 -209t79.5 -65zM270 301q-23 0 -39 16t-16 39
q0 24 16 39.5t39 15.5t39.5 -15.5t16.5 -39.5q0 -23 -16.5 -39t-39.5 -16z" />
    <glyph glyph-name="uni0299" unicode="&#x299;" horiz-adv-x="518" 
d="M73 0v491h199q190 0 190 -127q0 -37 -21 -64t-61 -39v-4q102 -25 102 -116q0 -71 -55 -106t-145 -35h-209zM186 292h75q90 0 90 60q0 61 -87 61h-78v-121zM186 78h88q95 0 95 70q0 66 -99 66h-84v-136z" />
    <glyph glyph-name="uni029C" unicode="&#x29c;" horiz-adv-x="572" 
d="M74 0v491h115v-188h196v188h115v-491h-115v202h-196v-202h-115z" />
    <glyph glyph-name="uni029D" unicode="&#x29d;" horiz-adv-x="323" 
d="M274 -265q-32 68 -68 118q-46 -59 -134 -59q-64 0 -101.5 37t-37.5 93q0 53 36 84.5t100 31.5q29 0 65 -14v465h116v-496q0 -28 -4 -48q69 -70 116 -172zM69 -117q49 0 61 53q-34 26 -62 26q-22 0 -34 -10.5t-12 -26.5q0 -18 13 -30t34 -12zM192 577q-30 0 -50.5 18.5
t-20.5 46.5q0 29 20.5 47.5t50.5 18.5q31 0 51.5 -18.5t20.5 -47.5q0 -28 -20.5 -46.5t-51.5 -18.5z" />
    <glyph glyph-name="uni029F" unicode="&#x29f;" horiz-adv-x="422" 
d="M73 0v491h115v-399h208v-92h-323z" />
    <glyph glyph-name="uni02A1" unicode="&#x2a1;" horiz-adv-x="459" 
d="M151 0v229h-142v86l76 5h82q147 100 147 196q0 50 -29 79t-80 29q-76 0 -135 -68l-59 74q84 88 205 88q92 0 153 -52t61 -146q0 -99 -126 -200h137v-91h-175v-229h-115z" />
    <glyph glyph-name="uni02A2" unicode="&#x2a2;" horiz-adv-x="459" 
d="M193 0v229h-175v91h136q-125 102 -125 200q0 94 64 146t160 52q114 0 195 -88l-59 -74q-55 68 -125 68q-55 0 -87 -29t-32 -79q0 -96 147 -196h82l76 -5v-86h-142v-229h-115z" />
    <glyph glyph-name="h.sups" unicode="&#x2b0;" horiz-adv-x="375" 
d="M47 385v465h83v-119l-5 -63q48 50 106 50q103 0 103 -130v-203h-84v192q0 37 -10 54t-40 17q-31 0 -70 -39v-224h-83z" />
    <glyph glyph-name="j.sups" unicode="&#x2b2;" horiz-adv-x="180" 
d="M25 245q-31 0 -55 8l16 63q12 -5 27 -5q20 0 28 13t8 42v344h83v-340q0 -125 -107 -125zM91 764q-22 0 -36.5 13t-14.5 33t14.5 33t36.5 13t36.5 -13t14.5 -33t-14.5 -33t-36.5 -13z" />
    <glyph glyph-name="r.sups" unicode="&#x2b3;" horiz-adv-x="256" 
d="M47 385v325h67l8 -57h2q38 65 93 65q24 0 40 -7l-15 -72q-22 5 -34 5q-50 0 -77 -64v-195h-84z" />
    <glyph glyph-name="w.sups" unicode="&#x2b7;" horiz-adv-x="505" 
d="M102 385l-86 325h84l36 -163l17 -95h4l19 95l43 163h70l45 -163l20 -95h4l18 95l36 163h77l-82 -325h-98l-36 145l-19 90h-2l-18 -90l-36 -145h-96z" />
    <glyph glyph-name="y.sups" unicode="&#x2b8;" horiz-adv-x="336" 
d="M74 256q-24 0 -45 6l15 64q14 -5 24 -5q47 0 64 53l6 17l-130 319h84l54 -152q4 -12 28 -94h4q2 7 26 94l44 152h80l-115 -334q-23 -61 -54.5 -90.5t-84.5 -29.5z" />
    <glyph glyph-name="uni02B9" unicode="&#x2b9;" horiz-adv-x="275" 
d="M82 418l20 270l115 -1l-19 -109l-41 -160h-75z" />
    <glyph glyph-name="uni02BB" unicode="&#x2bb;" horiz-adv-x="275" 
d="M134 382q-37 0 -57.5 29t-20.5 82q0 131 124 196l28 -51q-83 -48 -83 -126q3 1 9 1q28 0 47 -17t19 -45q0 -31 -18.5 -50t-47.5 -19z" />
    <glyph glyph-name="uni02BC" unicode="&#x2bc;" horiz-adv-x="275" 
d="M95 391l-28 51q83 48 83 126q-3 -1 -9 -1q-27 0 -46 17t-19 45q0 31 18 50t47 19q38 0 58.5 -29t20.5 -82q0 -131 -125 -196z" />
    <glyph glyph-name="uni02BE" unicode="&#x2be;" horiz-adv-x="171" 
d="M28 549v46q70 -3 70 55q0 56 -70 55v45q64 2 97 -25t33 -75t-33 -75.5t-97 -25.5z" />
    <glyph glyph-name="uni02BF" unicode="&#x2bf;" horiz-adv-x="171" 
d="M143 549q-64 -2 -97 25.5t-33 75.5t33 75t97 25v-45q-70 1 -70 -55q0 -58 70 -55v-46z" />
    <glyph glyph-name="uni02C1" unicode="&#x2c1;" horiz-adv-x="323" 
d="M133 385v179q-54 39 -81 74.5t-27 86.5q0 63 43 98t108 35q80 0 132 -59l-41 -52q-35 44 -82 44q-36 0 -56.5 -18t-20.5 -50q0 -35 24 -63t83 -64v-211h-82z" />
    <glyph glyph-name="circumflex" unicode="&#x2c6;" horiz-adv-x="549" 
d="M105 607l111 135h116l111 -135l-45 -43l-122 103h-4l-122 -103z" />
    <glyph glyph-name="caron" unicode="&#x2c7;" horiz-adv-x="549" 
d="M216 576l-111 135l45 42l122 -102h4l122 102l45 -42l-111 -135h-116z" />
    <glyph glyph-name="uni02C8" unicode="&#x2c8;" horiz-adv-x="131" 
d="M24 536l-6 200h95l-6 -200h-83z" />
    <glyph glyph-name="uni02C9" unicode="&#x2c9;" horiz-adv-x="293" 
d="M6 596v76h280v-76h-280z" />
    <glyph glyph-name="uni02CA" unicode="&#x2ca;" horiz-adv-x="230" 
d="M112 573l-57 57l147 174l80 -76z" />
    <glyph glyph-name="uni02CB" unicode="&#x2cb;" horiz-adv-x="230" 
d="M116 573l-170 155l80 76l147 -174z" />
    <glyph glyph-name="uni02CC" unicode="&#x2cc;" horiz-adv-x="131" 
d="M19 -268l6 200h82l6 -200h-94z" />
    <glyph glyph-name="uni02D0" unicode="&#x2d0;" horiz-adv-x="275" 
d="M46 0l85 164h13l85 -164h-183zM131 313l-85 164h183l-85 -164h-13z" />
    <glyph glyph-name="uni02D1" unicode="&#x2d1;" horiz-adv-x="275" 
d="M131 276l-85 164h183l-85 -164h-13z" />
    <glyph glyph-name="breve" unicode="&#x2d8;" horiz-adv-x="549" 
d="M274 571q-78 0 -118.5 44t-44.5 111l68 11q6 -39 30 -65.5t65 -26.5t65 26.5t30 65.5l68 -11q-4 -67 -44.5 -111t-118.5 -44z" />
    <glyph glyph-name="dotaccent" unicode="&#x2d9;" horiz-adv-x="549" 
d="M274 577q-30 0 -49 18.5t-19 47.5t19 47t49 18t49 -18t19 -47t-19 -47.5t-49 -18.5z" />
    <glyph glyph-name="ring" unicode="&#x2da;" horiz-adv-x="549" 
d="M274 559q-56 0 -88.5 28.5t-32.5 72.5q0 45 32.5 73.5t88.5 28.5t88.5 -28.5t32.5 -73.5q0 -44 -32.5 -72.5t-88.5 -28.5zM274 605q21 0 35.5 15.5t14.5 39.5q0 25 -14.5 40.5t-35.5 15.5t-35.5 -15.5t-14.5 -40.5q0 -24 14.5 -39.5t35.5 -15.5z" />
    <glyph glyph-name="ogonek" unicode="&#x2db;" horiz-adv-x="549" 
d="M296 -208q-43 0 -70.5 23t-27.5 65q0 70 70 123h71q-61 -47 -61 -98q0 -20 13 -31t31 -11q22 0 38 13l26 -54q-37 -30 -90 -30z" />
    <glyph glyph-name="tilde" unicode="&#x2dc;" horiz-adv-x="549" 
d="M343 575q-29 0 -54.5 18.5t-46 37t-35.5 18.5q-35 0 -41 -67l-74 4q5 144 113 144q29 0 54.5 -18.5t46 -37t36.5 -18.5q34 0 40 67l74 -4q-5 -144 -113 -144z" />
    <glyph glyph-name="hungarumlaut" unicode="&#x2dd;" horiz-adv-x="549" 
d="M223 566l-62 28l87 177l79 -36zM388 566l-62 28l87 177l79 -36z" />
    <glyph glyph-name="uni02DE" unicode="&#x2de;" horiz-adv-x="170" 
d="M117 228q-78 0 -106 96l-117 -48v84l167 70q11 -76 26.5 -105t37.5 -29q20 0 39 13l26 -57q-36 -24 -73 -24z" />
    <glyph glyph-name="uni02E0" unicode="&#x2e0;" horiz-adv-x="336" 
d="M170 242q-42 0 -67 24.5t-25 64.5q0 33 39 102l-109 277h83l51 -150q4 -15 13.5 -40.5t13.5 -38.5h3q5 16 14.5 42.5t12.5 36.5l50 150h79l-105 -275q40 -72 40 -104q0 -40 -25.5 -64.5t-67.5 -24.5zM170 295q24 0 24 30t-23 73h-3q-22 -47 -22 -73q0 -30 24 -30z" />
    <glyph glyph-name="l.sups" unicode="&#x2e1;" horiz-adv-x="184" 
d="M127 377q-80 0 -80 98v375h83v-380q0 -26 17 -26q7 0 13 2l11 -62q-19 -7 -44 -7z" />
    <glyph glyph-name="s.sups" unicode="&#x2e2;" horiz-adv-x="290" 
d="M143 377q-68 0 -126 44l37 53q49 -35 91 -35q23 0 36 9.5t13 25.5q0 4 -1 7.5t-4 7t-5 6t-7 5.5t-8.5 5t-10.5 5t-10.5 4t-11.5 4.5t-12 4.5q-41 16 -66 38t-25 59q0 42 33 70t87 28q61 0 113 -39l-39 -51q-40 28 -72 28q-21 0 -32.5 -9t-11.5 -23q0 -7 3 -12.5t12 -11
t14 -8t20 -8t20 -7.5q28 -10 44.5 -19t32 -29.5t15.5 -48.5q0 -45 -34.5 -74t-94.5 -29z" />
    <glyph glyph-name="x.sups" unicode="&#x2e3;" horiz-adv-x="328" 
d="M8 385l106 169l-98 156h90l34 -58l29 -51h4l24 51l29 58h88l-98 -165l103 -160h-89l-36 60l-33 53h-4l-29 -53l-33 -60h-87z" />
    <glyph glyph-name="uni0300" unicode="&#x300;" 
d="M2 573l-170 155l80 76l147 -174z" />
    <glyph glyph-name="uni0301" unicode="&#x301;" 
d="M-2 573l-57 57l147 174l80 -76z" />
    <glyph glyph-name="uni0302" unicode="&#x302;" 
d="M-169 607l111 135h116l111 -135l-45 -43l-122 103h-4l-122 -103z" />
    <glyph glyph-name="uni0303" unicode="&#x303;" 
d="M69 575q-29 0 -54.5 18.5t-46 37t-35.5 18.5q-35 0 -41 -67l-74 4q5 144 113 144q29 0 54.5 -18.5t46 -37t36.5 -18.5q34 0 40 67l74 -4q-5 -144 -113 -144z" />
    <glyph glyph-name="uni0304" unicode="&#x304;" 
d="M-140 596v76h280v-76h-280z" />
    <glyph glyph-name="uni0305" unicode="&#x305;" 
d="M-140 596v76h280v-76h-280z" />
    <glyph glyph-name="uni0306" unicode="&#x306;" 
d="M0 571q-78 0 -118.5 44t-44.5 111l68 11q6 -39 30 -65.5t65 -26.5t65 26.5t30 65.5l68 -11q-4 -67 -44.5 -111t-118.5 -44z" />
    <glyph glyph-name="uni0307" unicode="&#x307;" 
d="M0 577q-30 0 -49 18.5t-19 47.5t19 47t49 18t49 -18t19 -47t-19 -47.5t-49 -18.5z" />
    <glyph glyph-name="uni0308" unicode="&#x308;" 
d="M-103 578q-26 0 -43.5 17.5t-17.5 43.5t17.5 43.5t43.5 17.5q27 0 44 -17.5t17 -43.5t-17 -43.5t-44 -17.5zM103 578q-27 0 -44 17.5t-17 43.5t17 43.5t44 17.5q26 0 43.5 -17.5t17.5 -43.5t-17.5 -43.5t-43.5 -17.5z" />
    <glyph glyph-name="uni0309" unicode="&#x309;" 
d="M-38 570l-10 49q50 13 50 41q0 40 -81 44l7 73q161 -4 161 -108q0 -44 -35.5 -68t-91.5 -31z" />
    <glyph glyph-name="uni030A" unicode="&#x30a;" 
d="M0 559q-56 0 -88.5 28.5t-32.5 72.5q0 45 32.5 73.5t88.5 28.5t88.5 -28.5t32.5 -73.5q0 -44 -32.5 -72.5t-88.5 -28.5zM0 605q21 0 35.5 15.5t14.5 39.5q0 25 -14.5 40.5t-35.5 15.5t-35.5 -15.5t-14.5 -40.5q0 -24 14.5 -39.5t35.5 -15.5z" />
    <glyph glyph-name="uni030B" unicode="&#x30b;" 
d="M-51 566l-62 28l87 177l79 -36zM114 566l-62 28l87 177l79 -36z" />
    <glyph glyph-name="uni030C" unicode="&#x30c;" 
d="M-58 576l-111 135l45 42l122 -102h4l122 102l45 -42l-111 -135h-116z" />
    <glyph glyph-name="uni030F" unicode="&#x30f;" 
d="M-114 566l-104 169l79 36l87 -177zM51 566l-104 169l79 36l87 -177z" />
    <glyph glyph-name="uni0311" unicode="&#x311;" 
d="M-95 566l-68 12q4 67 44.5 110.5t118.5 43.5t118.5 -43.5t44.5 -110.5l-68 -12q-6 40 -30 66t-65 26t-65 -26t-30 -66z" />
    <glyph glyph-name="uni0312" unicode="&#x312;" 
d="M-2 575q-58 0 -58 76q0 86 90 123l20 -38q-57 -25 -61 -66q3 1 9 1q19 0 33 -12t14 -33q0 -24 -13.5 -37.5t-33.5 -13.5z" />
    <glyph glyph-name="uni0313" unicode="&#x313;" 
d="M-32 572l-20 39q56 24 60 66q-3 -1 -8 -1q-19 0 -33 12t-14 33q0 24 13.5 37.5t33.5 13.5q58 0 58 -76q0 -86 -90 -124z" />
    <glyph glyph-name="uni0318" unicode="&#x318;" 
d="M92 -253h-64v69h-110v59h110v69h64v-197z" />
    <glyph glyph-name="uni0319" unicode="&#x319;" 
d="M82 -184h-110v-69h-64v197h64v-69h110v-59z" />
    <glyph glyph-name="uni031A" unicode="&#x31a;" 
d="M92 573h-64v87h-110v59h174v-146z" />
    <glyph glyph-name="uni031B" unicode="&#x31b;" 
d="M0 430l-9 50q75 14 75 78q0 25 -15 57l87 39q26 -43 26 -88q0 -62 -45.5 -95.5t-118.5 -40.5z" />
    <glyph glyph-name="uni031C" unicode="&#x31c;" 
d="M59 -260q-64 -2 -97 25.5t-33 75.5t33 75t97 25v-45q-70 1 -70 -55q0 -58 70 -55v-46z" />
    <glyph glyph-name="uni031D" unicode="&#x31d;" 
d="M102 -220h-204v59h70v105h64v-105h70v-59z" />
    <glyph glyph-name="uni031E" unicode="&#x31e;" 
d="M102 -148h-70v-105h-64v105h-70v59h204v-59z" />
    <glyph glyph-name="uni031F" unicode="&#x31f;" 
d="M102 -184h-70v-69h-64v69h-70v59h70v69h64v-69h70v-59z" />
    <glyph glyph-name="uni0320" unicode="&#x320;" 
d="M-102 -184v59h204v-59h-204z" />
    <glyph glyph-name="uni0323" unicode="&#x323;" 
d="M0 -217q-30 0 -49 18.5t-19 47.5t19 47t49 18t49 -18t19 -47t-19 -47.5t-49 -18.5z" />
    <glyph glyph-name="uni0324" unicode="&#x324;" 
d="M-103 -210q-26 0 -43.5 17.5t-17.5 43.5t17.5 43.5t43.5 17.5q27 0 44 -17.5t17 -43.5t-17 -43.5t-44 -17.5zM103 -210q-27 0 -44 17.5t-17 43.5t17 43.5t44 17.5q26 0 43.5 -17.5t17.5 -43.5t-17.5 -43.5t-43.5 -17.5z" />
    <glyph glyph-name="uni0325" unicode="&#x325;" 
d="M0 -250q-56 0 -88.5 28.5t-32.5 72.5q0 45 32.5 73.5t88.5 28.5t88.5 -28.5t32.5 -73.5q0 -44 -32.5 -72.5t-88.5 -28.5zM0 -204q21 0 35.5 15.5t14.5 39.5q0 25 -14.5 40.5t-35.5 15.5t-35.5 -15.5t-14.5 -40.5q0 -24 14.5 -39.5t35.5 -15.5z" />
    <glyph glyph-name="uni0326" unicode="&#x326;" 
d="M-94 -233l-10 50q59 4 82.5 14t23.5 29q0 33 -68 39l24 46q71 -7 100 -25.5t29 -54.5q0 -90 -181 -98z" />
    <glyph glyph-name="uni0327" unicode="&#x327;" 
d="M-94 -233l-10 50q60 4 83 14.5t23 32.5q0 35 -77 45l46 94h70l-29 -65q38 -9 56.5 -26t18.5 -47q0 -90 -181 -98z" />
    <glyph glyph-name="uni0328" unicode="&#x328;" 
d="M22 -208q-43 0 -70.5 23t-27.5 65q0 70 70 123h71q-61 -47 -61 -98q0 -20 13 -31t31 -11q22 0 38 13l26 -54q-37 -30 -90 -30z" />
    <glyph glyph-name="uni0329" unicode="&#x329;" 
d="M-47 -268l6 200h82l6 -200h-94z" />
    <glyph glyph-name="uni032A" unicode="&#x32a;" 
d="M65 -223v84h-130v-84h-59v143h248v-143h-59z" />
    <glyph glyph-name="uni032C" unicode="&#x32c;" 
d="M-58 -224l-111 135l45 42l122 -102h4l122 102l45 -42l-111 -135h-116z" />
    <glyph glyph-name="uni032E" unicode="&#x32e;" 
d="M0 -233q-78 0 -118.5 44t-44.5 111l68 11q6 -39 30 -65.5t65 -26.5t65 26.5t30 65.5l68 -11q-4 -67 -44.5 -111t-118.5 -44z" />
    <glyph glyph-name="uni032F" unicode="&#x32f;" 
d="M-95 -242l-68 12q4 67 44.5 110.5t118.5 43.5t118.5 -43.5t44.5 -110.5l-68 -12q-6 40 -30 66t-65 26t-65 -26t-30 -66z" />
    <glyph glyph-name="uni0330" unicode="&#x330;" 
d="M69 -225q-29 0 -54.5 18.5t-46 37t-35.5 18.5q-35 0 -41 -67l-74 4q5 144 113 144q29 0 54.5 -18.5t46 -37t36.5 -18.5q34 0 40 67l74 -4q-5 -144 -113 -144z" />
    <glyph glyph-name="uni0331" unicode="&#x331;" 
d="M-140 -180v76h280v-76h-280z" />
    <glyph glyph-name="uni0334" unicode="&#x334;" 
d="M69 183q-29 0 -54.5 18.5t-46 37t-35.5 18.5q-35 0 -41 -67l-74 4q5 144 113 144q29 0 54.5 -18.5t46 -37t36.5 -18.5q34 0 40 67l74 -4q-5 -144 -113 -144z" />
    <glyph glyph-name="uni0339" unicode="&#x339;" 
d="M-59 -260v46q70 -3 70 55q0 56 -70 55v45q64 2 97 -25t33 -75t-33 -75.5t-97 -25.5z" />
    <glyph glyph-name="uni033A" unicode="&#x33a;" 
d="M-124 -220v143h59v-83h130v83h59v-143h-248z" />
    <glyph glyph-name="uni033B" unicode="&#x33b;" 
d="M-124 -244v172h248v-172h-248zM-65 -196h130v78h-130v-78z" />
    <glyph glyph-name="uni033C" unicode="&#x33c;" 
d="M-178 -232q0 154 102 154q58 0 74 -56h4q16 56 74 56q102 0 102 -154l-62 -8q0 51 -11 70t-33 19q-42 0 -42 -67v-20h-60v20q0 67 -42 67q-23 0 -33.5 -19t-10.5 -70z" />
    <glyph glyph-name="uni033D" unicode="&#x33d;" 
d="M-51 548l-42 41l51 51l-51 51l42 42l51 -51l51 51l42 -42l-51 -51l51 -51l-42 -41l-51 51z" />
    <glyph glyph-name="uni0342" unicode="&#x342;" 
d="M69 575q-29 0 -54.5 18.5t-46 37t-35.5 18.5q-35 0 -41 -67l-74 4q5 144 113 144q29 0 54.5 -18.5t46 -37t36.5 -18.5q34 0 40 67l74 -4q-5 -144 -113 -144z" />
    <glyph glyph-name="uni0345" unicode="&#x345;" 
d="M49 -208q-94 0 -94 110v40h85q-2 -16 -2 -47q0 -32 34 -32q8 0 19 3l12 -65q-21 -9 -54 -9z" />
    <glyph glyph-name="uni0361" unicode="&#x361;" 
d="M-424 543l-32 55q205 125 456 125t456 -125l-32 -55q-177 104 -424 104t-424 -104z" />
    <glyph glyph-name="uni0374" unicode="&#x374;" horiz-adv-x="275" 
d="M82 418l20 270h115l-19 -110l-41 -160h-75z" />
    <glyph glyph-name="uni0375" unicode="&#x375;" horiz-adv-x="275" 
d="M58 0l19 110l41 160h75l-20 -270h-115z" />
    <glyph glyph-name="uni037A" unicode="&#x37a;" horiz-adv-x="549" 
d="M327 -208q-94 0 -94 110v40h85q-2 -16 -2 -47q0 -32 34 -32q8 0 19 3l12 -65q-21 -9 -54 -9z" />
    <glyph glyph-name="uni037E" unicode="&#x37e;" horiz-adv-x="275" 
d="M138 330q-32 0 -53.5 22t-21.5 56t21.5 56t53.5 22t53 -22t21 -56t-21 -56t-53 -22zM72 -182l-25 63q48 19 75 51t26 70h-9q-31 0 -52.5 19.5t-21.5 51.5t22.5 51.5t54.5 19.5q40 0 63 -31t23 -87q0 -74 -41 -128t-115 -80z" />
    <glyph glyph-name="tonos" unicode="&#x384;" horiz-adv-x="549" 
d="M230 571l38 211l115 -20l-75 -206z" />
    <glyph glyph-name="dieresistonos" unicode="&#x385;" horiz-adv-x="549" 
d="M232 577l41 211l85 -18l-72 -205zM155 590q-21 0 -35 13.5t-14 35.5t14 35.5t35 13.5t35 -13.5t14 -35.5t-14 -35.5t-35 -13.5zM401 590q-21 0 -35 13.5t-14 35.5t14 35.5t35 13.5t35 -13.5t14 -35.5t-14 -35.5t-35 -13.5z" />
    <glyph glyph-name="Alphatonos" unicode="&#x386;" horiz-adv-x="594" 
d="M253 348l-23 -80h167l-23 80q-15 49 -59 216h-4q-33 -134 -58 -216zM34 0l213 654h136l213 -654h-122l-51 177h-220l-51 -177h-118zM0 466l29 204l101 -14l-55 -204z" />
    <glyph glyph-name="anoteleia" unicode="&#x387;" horiz-adv-x="275" 
d="M138 330q-32 0 -53.5 22t-21.5 56t21.5 56t53.5 22t53 -22t21 -56t-21 -56t-53 -22z" />
    <glyph glyph-name="Epsilontonos" unicode="&#x388;" horiz-adv-x="630" 
d="M175 0v654h394v-98h-278v-167h235v-98h-235v-193h288v-98h-404zM-16 466l29 204l101 -14l-55 -204z" />
    <glyph glyph-name="Etatonos" unicode="&#x389;" horiz-adv-x="755" 
d="M175 0v654h116v-263h265v263h116v-654h-116v290h-265v-290h-116zM-16 466l29 204l101 -14l-55 -204z" />
    <glyph glyph-name="Iotatonos" unicode="&#x38a;" horiz-adv-x="374" 
d="M175 0v654h116v-654h-116zM-16 466l29 204l101 -14l-55 -204z" />
    <glyph glyph-name="Omicrontonos" unicode="&#x38c;" horiz-adv-x="744" 
d="M407 -12q-129 0 -208.5 92.5t-79.5 249.5q0 156 79.5 246t208.5 90q130 0 209.5 -90t79.5 -246q0 -157 -79.5 -249.5t-209.5 -92.5zM407 89q77 0 123 65.5t46 175.5q0 109 -45.5 172t-123.5 63t-123.5 -63t-45.5 -172q0 -110 46 -175.5t123 -65.5zM-16 466l29 204
l101 -14l-55 -204z" />
    <glyph glyph-name="Upsilontonos" unicode="&#x38e;" horiz-adv-x="653" 
d="M344 0v243l-196 411h124l71 -167q30 -77 58 -144h4q54 129 60 144l71 167h121l-197 -411v-243h-116zM-16 466l29 204l101 -14l-55 -204z" />
    <glyph glyph-name="Omegatonos" unicode="&#x38f;" horiz-adv-x="764" 
d="M115 0v94h120v4q-106 106 -106 256q0 138 79.5 225t209.5 87q129 0 208.5 -87t79.5 -225q0 -150 -106 -256v-4h120v-94h-250v84q117 101 117 260q0 98 -45.5 159.5t-123.5 61.5t-124 -61.5t-46 -159.5q0 -159 117 -260v-84h-250zM-22 466l29 204l101 -14l-55 -204z" />
    <glyph glyph-name="iotadieresistonos" unicode="&#x390;" horiz-adv-x="282" 
d="M191 -12q-64 0 -91 36t-27 105v362h117q-8 -328 -8 -368q0 -41 37 -41q15 0 31 6l14 -86q-32 -14 -73 -14zM85 577l41 211l85 -18l-72 -205zM8 590q-21 0 -35 13.5t-14 35.5t14 35.5t35 13.5t35 -13.5t14 -35.5t-14 -35.5t-35 -13.5zM254 590q-21 0 -35 13.5t-14 35.5
t14 35.5t35 13.5t35 -13.5t14 -35.5t-14 -35.5t-35 -13.5z" />
    <glyph glyph-name="Alpha" unicode="&#x391;" horiz-adv-x="558" 
d="M217 348l-23 -80h167l-23 80q-15 49 -59 216h-4q-33 -134 -58 -216zM-2 0l213 654h136l213 -654h-122l-51 177h-220l-51 -177h-118z" />
    <glyph glyph-name="Beta" unicode="&#x392;" horiz-adv-x="597" 
d="M83 0v654h209q234 0 234 -161q0 -48 -24.5 -87.5t-66.5 -54.5v-4q57 -13 91 -52.5t34 -102.5q0 -95 -69 -143.5t-182 -48.5h-226zM199 384h83q130 0 130 92q0 47 -31.5 67.5t-96.5 20.5h-85v-180zM199 90h98q150 0 150 108q0 99 -150 99h-98v-207z" />
    <glyph glyph-name="Gamma" unicode="&#x393;" horiz-adv-x="510" 
d="M83 0v654h395v-98h-279v-556h-116z" />
    <glyph glyph-name="uni0394" unicode="&#x394;" horiz-adv-x="614" 
d="M32 0v70l207 584h137l206 -584v-70h-550zM157 98h298l-85 259l-63 203h-4l-62 -203z" />
    <glyph glyph-name="Epsilon" unicode="&#x395;" horiz-adv-x="538" 
d="M83 0v654h394v-98h-278v-167h235v-98h-235v-193h288v-98h-404z" />
    <glyph glyph-name="Zeta" unicode="&#x396;" horiz-adv-x="540" 
d="M40 0v70l316 486h-287v98h431v-70l-317 -486h319v-98h-462z" />
    <glyph glyph-name="Eta" unicode="&#x397;" horiz-adv-x="663" 
d="M83 0v654h116v-263h265v263h116v-654h-116v290h-265v-290h-116z" />
    <glyph glyph-name="Theta" unicode="&#x398;" horiz-adv-x="674" 
d="M232 290v101h210v-101h-210zM337 -12q-129 0 -208.5 92.5t-79.5 249.5q0 156 79.5 246t208.5 90q130 0 209.5 -90t79.5 -246q0 -157 -79.5 -249.5t-209.5 -92.5zM337 89q77 0 123 65.5t46 175.5q0 109 -45.5 172t-123.5 63t-123.5 -63t-45.5 -172q0 -110 46 -175.5
t123 -65.5z" />
    <glyph glyph-name="Iota" unicode="&#x399;" horiz-adv-x="282" 
d="M83 0v654h116v-654h-116z" />
    <glyph glyph-name="Kappa" unicode="&#x39a;" horiz-adv-x="597" 
d="M83 0v654h116v-297h3l233 297h129l-201 -255l235 -399h-128l-177 308l-94 -117v-191h-116z" />
    <glyph glyph-name="Lambda" unicode="&#x39b;" horiz-adv-x="536" 
d="M-4 0l203 654h137l204 -654h-123l-92 329q-9 32 -27.5 102t-30.5 111h-4q-13 -44 -33 -120.5t-24 -92.5l-91 -329h-119z" />
    <glyph glyph-name="Mu" unicode="&#x39c;" horiz-adv-x="745" 
d="M83 0v654h131l116 -320q7 -20 42 -128h4q5 15 19 60t22 68l113 320h132v-654h-107v299q0 58 15 208h-4l-53 -152l-107 -294h-69l-108 294l-52 152h-4q15 -180 15 -208v-299h-105z" />
    <glyph glyph-name="Nu" unicode="&#x39d;" horiz-adv-x="656" 
d="M83 0v654h119l204 -368l67 -139h4q-1 17 -5.5 66t-7 86.5t-2.5 70.5v284h111v-654h-119l-204 368l-67 139h-4q1 -20 5.5 -67t7 -84t2.5 -70v-286h-111z" />
    <glyph glyph-name="Xi" unicode="&#x39e;" horiz-adv-x="552" 
d="M51 0v98h451v-98h-451zM122 291v98h308v-98h-308zM61 556v98h431v-98h-431z" />
    <glyph glyph-name="Omicron" unicode="&#x39f;" horiz-adv-x="674" 
d="M337 -12q-129 0 -208.5 92.5t-79.5 249.5q0 156 79.5 246t208.5 90q130 0 209.5 -90t79.5 -246q0 -157 -79.5 -249.5t-209.5 -92.5zM337 89q77 0 123 65.5t46 175.5q0 109 -45.5 172t-123.5 63t-123.5 -63t-45.5 -172q0 -110 46 -175.5t123 -65.5z" />
    <glyph glyph-name="Pi" unicode="&#x3a0;" horiz-adv-x="654" 
d="M83 0v654h488v-654h-116v556h-256v-556h-116z" />
    <glyph glyph-name="Rho" unicode="&#x3a1;" horiz-adv-x="582" 
d="M83 0v654h206q253 0 253 -202q0 -104 -69 -158t-180 -54h-94v-240h-116zM199 333h85q144 0 144 119q0 60 -36 84.5t-112 24.5h-81v-228z" />
    <glyph glyph-name="Sigma" unicode="&#x3a3;" horiz-adv-x="544" 
d="M41 0v70l213 261l-210 253v70h436v-98h-290l181 -222l-184 -236h321v-98h-467z" />
    <glyph glyph-name="Tau" unicode="&#x3a4;" horiz-adv-x="546" 
d="M215 0v556h-189v98h494v-98h-189v-556h-116z" />
    <glyph glyph-name="Upsilon" unicode="&#x3a5;" horiz-adv-x="501" 
d="M192 0v243l-196 411h124l71 -167q30 -77 58 -144h4q54 129 60 144l71 167h121l-197 -411v-243h-116z" />
    <glyph glyph-name="Phi" unicode="&#x3a6;" horiz-adv-x="740" 
d="M159 330q0 -73 43 -119.5t116 -54.5v343q-73 -8 -116 -52.5t-43 -116.5zM581 330q0 72 -43 116.5t-116 52.5v-343q73 8 116 54.5t43 119.5zM318 -22v90q-123 8 -196.5 77.5t-73.5 184.5t73 182t197 75v89h104v-89q124 -8 197 -75t73 -182t-73.5 -184.5t-196.5 -77.5v-90
h-104z" />
    <glyph glyph-name="Chi" unicode="&#x3a7;" horiz-adv-x="541" 
d="M13 0l186 337l-174 317h129l72 -145q9 -16 25 -49.5t25 -50.5h4q27 67 44 100l69 145h123l-174 -322l186 -332h-129l-80 154l-25.5 51t-27.5 56h-4q-22 -52 -48 -107l-78 -154h-123z" />
    <glyph glyph-name="Psi" unicode="&#x3a8;" horiz-adv-x="726" 
d="M308 0v232q-250 14 -250 261v161h113v-155q0 -87 34 -128.5t103 -46.5v330h109v-330q69 5 103 46.5t34 128.5v155h114v-161q0 -247 -251 -261v-232h-109z" />
    <glyph glyph-name="uni03A9" unicode="&#x3a9;" horiz-adv-x="695" 
d="M45 0v94h120v4q-106 106 -106 256q0 138 79.5 225t209.5 87q129 0 208.5 -87t79.5 -225q0 -150 -106 -256v-4h120v-94h-250v84q117 101 117 260q0 98 -45.5 159.5t-123.5 61.5t-124 -61.5t-46 -159.5q0 -159 117 -260v-84h-250z" />
    <glyph glyph-name="Iotadieresis" unicode="&#x3aa;" horiz-adv-x="282" 
d="M83 0v654h116v-654h-116zM34 708q-26 0 -42.5 16.5t-16.5 42.5t16.5 43t42.5 17t43 -17t17 -43t-17 -42.5t-43 -16.5zM248 708q-26 0 -43 16.5t-17 42.5t17 43t43 17t42.5 -17t16.5 -43t-16.5 -42.5t-42.5 -16.5z" />
    <glyph glyph-name="Upsilondieresis" unicode="&#x3ab;" horiz-adv-x="501" 
d="M192 0v243l-196 411h124l71 -167q30 -77 58 -144h4q54 129 60 144l71 167h121l-197 -411v-243h-116zM143 708q-26 0 -42.5 16.5t-16.5 42.5t16.5 43t42.5 17t43 -17t17 -43t-17 -42.5t-43 -16.5zM357 708q-26 0 -43 16.5t-17 42.5t17 43t43 17t42.5 -17t16.5 -43
t-16.5 -42.5t-42.5 -16.5z" />
    <glyph glyph-name="alphatonos" unicode="&#x3ac;" horiz-adv-x="578" 
d="M234 -12q-88 0 -140.5 67t-52.5 185q0 120 63.5 191.5t152.5 71.5q102 0 143 -113h4l18 101h114q-2 -11 -13 -61.5t-15 -69.5t-12.5 -62t-12 -66.5t-7 -52.5t-3.5 -49q0 -24 13.5 -36t34.5 -12q14 0 33 7l15 -86q-30 -15 -75 -15q-101 0 -112 90h-4q-52 -90 -144 -90z
M260 83q41 0 74 38t37 91l7 88q-32 108 -105 108q-47 0 -80.5 -43.5t-33.5 -123.5q0 -77 27 -117.5t74 -40.5zM245 571l38 211l115 -20l-75 -206z" />
    <glyph glyph-name="epsilontonos" unicode="&#x3ad;" horiz-adv-x="460" 
d="M260 -12q-96 0 -157.5 39.5t-61.5 110.5q0 93 98 119v4q-36 12 -56 42t-20 64q0 67 57 101.5t143 34.5q90 0 164 -52l-43 -75q-55 38 -116 38q-41 0 -66 -16.5t-25 -45.5q0 -60 90 -60q17 0 65 4v-85q-42 3 -80 3q-98 0 -98 -65q0 -34 30.5 -53t86.5 -19q66 0 123 44
l46 -74q-80 -59 -180 -59zM210 571l38 211l115 -20l-75 -206z" />
    <glyph glyph-name="etatonos" unicode="&#x3ae;" horiz-adv-x="552" 
d="M368 -178q8 314 8 471q0 61 -15.5 86t-53.5 25q-33 0 -59.5 -20.5t-59.5 -69.5v-314h-115v348q0 83 -9 143h104l8 -93h4q74 105 165 105q139 0 139 -195v-486h-116zM254 571l38 211l115 -20l-75 -206z" />
    <glyph glyph-name="iotatonos" unicode="&#x3af;" horiz-adv-x="282" 
d="M191 -12q-64 0 -91 36t-27 105v362h117q-8 -328 -8 -368q0 -41 37 -41q15 0 31 6l14 -86q-32 -14 -73 -14zM87 571l38 211l115 -20l-75 -206z" />
    <glyph glyph-name="upsilondieresistonos" unicode="&#x3b0;" horiz-adv-x="521" 
d="M254 -12q-97 0 -147 53t-50 149q0 27 2 79.5t2 78.5q0 84 -10 143h112q8 -39 8 -118q0 -22 -3 -90t-3 -101q0 -50 25.5 -75t64.5 -25q47 0 74 41t27 124q0 115 -36 231l112 25q40 -131 40 -251q0 -125 -58 -194.5t-160 -69.5zM208 577l41 211l85 -18l-72 -205zM131 590
q-21 0 -35 13.5t-14 35.5t14 35.5t35 13.5t35 -13.5t14 -35.5t-14 -35.5t-35 -13.5zM377 590q-21 0 -35 13.5t-14 35.5t14 35.5t35 13.5t35 -13.5t14 -35.5t-14 -35.5t-35 -13.5z" />
    <glyph glyph-name="alpha" unicode="&#x3b1;" horiz-adv-x="578" 
d="M234 -12q-88 0 -140.5 67t-52.5 185q0 120 63.5 191.5t152.5 71.5q102 0 143 -113h4l18 101h114q-2 -11 -13 -61.5t-15 -69.5t-12.5 -62t-12 -66.5t-7 -52.5t-3.5 -49q0 -24 13.5 -36t34.5 -12q14 0 33 7l15 -86q-30 -15 -75 -15q-101 0 -112 90h-4q-52 -90 -144 -90z
M260 83q41 0 74 38t37 91l7 88q-32 108 -105 108q-47 0 -80.5 -43.5t-33.5 -123.5q0 -77 27 -117.5t74 -40.5z" />
    <glyph glyph-name="beta" unicode="&#x3b2;" horiz-adv-x="583" 
d="M72 -178v656q0 108 54.5 174t161.5 66q83 0 141.5 -45.5t58.5 -131.5q0 -101 -90 -158v-4q65 -11 105.5 -60.5t40.5 -122.5q0 -98 -58 -153t-137 -55q-104 0 -169 70q6 -166 8 -236h-116zM318 83q48 0 80 32t32 89q0 50 -29.5 82t-84.5 32q-24 0 -45 -6l-15 86
q63 11 92 47.5t29 85.5q0 46 -25.5 71t-63.5 25q-49 0 -76 -41.5t-29 -117.5q-3 -159 -3 -317q52 -68 138 -68z" />
    <glyph glyph-name="gamma" unicode="&#x3b3;" horiz-adv-x="509" 
d="M190 -178q6 52 6 129q0 107 -58 263.5t-136 262.5l117 26q41 -58 82.5 -161t64.5 -210h4q92 185 106 359h114q-21 -130 -61.5 -235t-130.5 -247q11 -73 11 -187h-119z" />
    <glyph glyph-name="delta" unicode="&#x3b4;" horiz-adv-x="540" 
d="M271 -12q-93 0 -159 61.5t-66 162.5q0 79 47 134.5t122 83.5q-119 84 -119 173q0 49 44 82t127 33q98 0 215 -39l-27 -88q-115 41 -189 41q-31 0 -46.5 -11t-15.5 -28q0 -9 3.5 -18t11.5 -18.5t16.5 -17.5t23.5 -19.5t26 -19.5t30.5 -21.5t31.5 -22.5q49 -35 78 -64
t50 -73.5t21 -97.5q0 -106 -60 -169.5t-165 -63.5zM273 82q53 0 82 36t29 103q0 83 -91 154q-65 -16 -101 -57t-36 -104q0 -60 34 -96t83 -36z" />
    <glyph glyph-name="epsilon" unicode="&#x3b5;" horiz-adv-x="460" 
d="M260 -12q-96 0 -157.5 39.5t-61.5 110.5q0 93 98 119v4q-36 12 -56 42t-20 64q0 67 57 101.5t143 34.5q90 0 164 -52l-43 -75q-55 38 -116 38q-41 0 -66 -16.5t-25 -45.5q0 -60 90 -60q17 0 65 4v-85q-42 3 -80 3q-98 0 -98 -65q0 -34 30.5 -53t86.5 -19q66 0 123 44
l46 -74q-80 -59 -180 -59z" />
    <glyph glyph-name="zeta" unicode="&#x3b6;" horiz-adv-x="445" 
d="M374 -186l-90 33q20 27 27 36.5t13.5 24t6.5 26.5q0 22 -20.5 33t-82.5 25q-84 18 -134 70t-50 163q0 95 74 206t179 191q-12 -1 -98.5 -3t-122.5 -4v91h349v-91h-5q-98 -64 -177.5 -180.5t-79.5 -203.5q0 -70 31 -102.5t101 -45.5q75 -15 106.5 -41t31.5 -78
q0 -66 -59 -150z" />
    <glyph glyph-name="eta" unicode="&#x3b7;" horiz-adv-x="552" 
d="M368 -178q8 314 8 471q0 61 -15.5 86t-53.5 25q-33 0 -59.5 -20.5t-59.5 -69.5v-314h-115v348q0 83 -9 143h104l8 -93h4q74 105 165 105q139 0 139 -195v-486h-116z" />
    <glyph glyph-name="theta" unicode="&#x3b8;" horiz-adv-x="536" 
d="M268 -12q-101 0 -157.5 92.5t-56.5 275.5q0 177 57 269.5t157 92.5t157 -93t57 -269q0 -183 -56.5 -275.5t-157.5 -92.5zM268 624q-94 0 -101 -228h202q-7 228 -101 228zM268 82q95 0 101 235h-202q6 -235 101 -235z" />
    <glyph glyph-name="iota" unicode="&#x3b9;" horiz-adv-x="282" 
d="M191 -12q-64 0 -91 36t-27 105v362h117q-8 -328 -8 -368q0 -41 37 -41q15 0 31 6l14 -86q-32 -14 -73 -14z" />
    <glyph glyph-name="kappa" unicode="&#x3ba;" horiz-adv-x="520" 
d="M396 -10q-69 83 -143 226q-8 -10 -26 -32q-45 -52 -45 -157v-27h-109v348q0 90 -10 143h114q9 -37 9 -118v-122h4q61 101 133.5 169t150.5 83l10 -108q-76 -20 -158 -101q37 -74 92 -155.5t107 -138.5z" />
    <glyph glyph-name="lambda" unicode="&#x3bb;" horiz-adv-x="524" 
d="M138 -10l-124 10l213 497l-5 18q-29 106 -102 106q-31 0 -67 -16l-26 94q48 19 106 19q78 0 125 -50t80 -159l180 -509h-123l-115 368h-4z" />
    <glyph glyph-name="uni03BC" unicode="&#x3bc;" horiz-adv-x="578" 
d="M73 -178v669h115v-293q0 -58 18 -84.5t57 -26.5q31 0 56 17t51 62v325h116q-8 -328 -8 -368q0 -41 40 -41q15 0 30 6l15 -86q-31 -14 -73 -14q-92 0 -108 88h-4q-44 -84 -119 -84q-55 0 -78 34q1 -126 9 -204h-117z" />
    <glyph glyph-name="nu" unicode="&#x3bd;" horiz-adv-x="499" 
d="M188 0q-50 273 -186 477l117 26q43 -70 83 -180.5t59 -204.5h4q84 183 101 373h114q-21 -131 -62.5 -245t-119.5 -246h-110z" />
    <glyph glyph-name="xi" unicode="&#x3be;" horiz-adv-x="450" 
d="M380 -186l-91 33q20 27 27 36.5t13.5 24t6.5 26.5q0 22 -21 33.5t-82 24.5q-88 18 -137.5 61.5t-49.5 131.5q0 66 41 117t101 70v4q-44 18 -70 54.5t-26 83.5q0 71 59 108q-77 -3 -129 -7v91h408v-91h-116q-46 0 -76 -28t-30 -76q0 -43 31.5 -74.5t73.5 -31.5q37 0 69 7
v-92q-33 7 -76 7q-59 0 -100.5 -34.5t-41.5 -90.5q0 -57 33.5 -81.5t108.5 -37.5q76 -15 104 -40.5t28 -78.5q0 -65 -58 -150z" />
    <glyph glyph-name="omicron" unicode="&#x3bf;" horiz-adv-x="544" 
d="M272 -12q-97 0 -164 69.5t-67 187.5q0 119 67 188.5t164 69.5t164 -69.5t67 -188.5q0 -118 -67 -187.5t-164 -69.5zM272 82q55 0 84 43.5t29 119.5t-29.5 120t-83.5 44t-83.5 -44t-29.5 -120t29 -119.5t84 -43.5z" />
    <glyph glyph-name="pi" unicode="&#x3c0;" horiz-adv-x="611" 
d="M504 -12q-128 0 -128 146q0 19 2 117t3 148h-143q0 -130 -27 -406l-116 7q35 205 35 399h-110v87l72 5h495v-92h-95q-7 -115 -7 -271q0 -25 11 -35.5t34 -10.5q10 0 38 5l14 -86q-33 -13 -78 -13z" />
    <glyph glyph-name="rho" unicode="&#x3c1;" horiz-adv-x="559" 
d="M69 -178v421q0 128 62.5 194t163.5 66q105 0 163 -66t58 -184q0 -120 -60.5 -192.5t-142.5 -72.5t-135 62q1 -38 3.5 -112t4.5 -116h-117zM288 83q47 0 78.5 44.5t31.5 124.5q0 156 -107 156q-49 0 -81 -42t-32 -117v-113q46 -53 110 -53z" />
    <glyph glyph-name="uni03C2" unicode="&#x3c2;" horiz-adv-x="439" 
d="M333 -183l-92 32q51 65 51 95q0 25 -13.5 40t-49.5 26q-32 11 -55 22t-50 31.5t-43.5 45t-28 62.5t-11.5 85q0 114 67 180.5t165 66.5q82 0 144 -55l-56 -75q-41 36 -81 36q-55 0 -88 -42t-33 -111q0 -68 30 -100t89 -52q67 -23 91.5 -50t24.5 -82q0 -68 -61 -155z" />
    <glyph glyph-name="sigma" unicode="&#x3c3;" horiz-adv-x="560" 
d="M268 -12q-97 0 -162 67t-65 185q0 121 67.5 186t164.5 65h275v-96q-100 9 -147 10v-4q86 -48 86 -178q0 -108 -61.5 -171.5t-157.5 -63.5zM269 82q49 0 78.5 40.5t29.5 111.5q0 68 -29 115.5t-78 47.5q-51 0 -81 -39.5t-30 -117.5q0 -73 30.5 -115.5t79.5 -42.5z" />
    <glyph glyph-name="tau" unicode="&#x3c4;" horiz-adv-x="476" 
d="M300 -12q-65 0 -92.5 37t-27.5 109v266h-154v86l72 5h352v-91h-157q-4 -131 -4 -272q0 -46 39 -46q22 0 52 8l16 -87q-49 -15 -96 -15z" />
    <glyph glyph-name="upsilon" unicode="&#x3c5;" horiz-adv-x="521" 
d="M254 -12q-97 0 -147 53t-50 149q0 27 2 79.5t2 78.5q0 84 -10 143h112q8 -39 8 -118q0 -22 -3 -90t-3 -101q0 -50 25.5 -75t64.5 -25q47 0 74 41t27 124q0 115 -36 231l112 25q40 -131 40 -251q0 -125 -58 -194.5t-160 -69.5z" />
    <glyph glyph-name="phi" unicode="&#x3c6;" horiz-adv-x="710" 
d="M159 246q0 -75 40 -119.5t103 -48.5v335q-63 -3 -103 -47.5t-40 -119.5zM550 246q0 77 -38.5 120.5t-103.5 46.5v-335q63 4 102.5 48.5t39.5 119.5zM302 -178v169q-108 5 -184.5 73t-76.5 182t76 181.5t185 72.5v125h106v-125q109 -5 185 -72.5t76 -181.5t-76.5 -182
t-184.5 -73v-169h-106z" />
    <glyph glyph-name="chi" unicode="&#x3c7;" horiz-adv-x="504" 
d="M127 -190l-118 12l190 342l-189 313l114 26l131 -237h4l106 225h120l-171 -324l200 -330l-113 -27l-142 262h-4z" />
    <glyph glyph-name="psi" unicode="&#x3c8;" horiz-adv-x="721" 
d="M306 -178v166q-126 2 -185.5 68t-59.5 174v118q0 83 -9 143h112q8 -45 8 -118q0 -25 -1 -80.5t-1 -70.5q0 -65 33.5 -103.5t102.5 -38.5v545h105v-545q72 2 107.5 47t35.5 142t-36 209l111 25q41 -117 41 -229q0 -136 -67 -210t-192 -76v-166h-105z" />
    <glyph glyph-name="omega" unicode="&#x3c9;" horiz-adv-x="724" 
d="M227 -12q-83 0 -132 65.5t-49 187.5q0 136 83 262l107 -43q-41 -64 -61 -119.5t-20 -121.5q0 -64 20.5 -100.5t57.5 -36.5q76 0 76 107q0 39 -10 131h123q-10 -92 -10 -131q0 -107 73 -107q35 0 56 40t21 115q0 66 -15.5 115t-54.5 111l105 40q81 -127 81 -259
q0 -124 -46.5 -190t-131.5 -66q-45 0 -82 22.5t-55 68.5h-4q-36 -91 -132 -91z" />
    <glyph glyph-name="iotadieresis" unicode="&#x3ca;" horiz-adv-x="282" 
d="M191 -12q-64 0 -91 36t-27 105v362h117q-8 -328 -8 -368q0 -41 37 -41q15 0 31 6l14 -86q-32 -14 -73 -14zM28 578q-26 0 -43.5 17.5t-17.5 43.5t17.5 43.5t43.5 17.5q27 0 44 -17.5t17 -43.5t-17 -43.5t-44 -17.5zM234 578q-27 0 -44 17.5t-17 43.5t17 43.5t44 17.5
q26 0 43.5 -17.5t17.5 -43.5t-17.5 -43.5t-43.5 -17.5z" />
    <glyph glyph-name="upsilondieresis" unicode="&#x3cb;" horiz-adv-x="521" 
d="M254 -12q-97 0 -147 53t-50 149q0 27 2 79.5t2 78.5q0 84 -10 143h112q8 -39 8 -118q0 -22 -3 -90t-3 -101q0 -50 25.5 -75t64.5 -25q47 0 74 41t27 124q0 115 -36 231l112 25q40 -131 40 -251q0 -125 -58 -194.5t-160 -69.5zM151 578q-26 0 -43.5 17.5t-17.5 43.5
t17.5 43.5t43.5 17.5q27 0 44 -17.5t17 -43.5t-17 -43.5t-44 -17.5zM357 578q-27 0 -44 17.5t-17 43.5t17 43.5t44 17.5q26 0 43.5 -17.5t17.5 -43.5t-17.5 -43.5t-43.5 -17.5z" />
    <glyph glyph-name="omicrontonos" unicode="&#x3cc;" horiz-adv-x="544" 
d="M272 -12q-97 0 -164 69.5t-67 187.5q0 119 67 188.5t164 69.5t164 -69.5t67 -188.5q0 -118 -67 -187.5t-164 -69.5zM272 82q55 0 84 43.5t29 119.5t-29.5 120t-83.5 44t-83.5 -44t-29.5 -120t29 -119.5t84 -43.5zM230 571l38 211l115 -20l-75 -206z" />
    <glyph glyph-name="upsilontonos" unicode="&#x3cd;" horiz-adv-x="521" 
d="M254 -12q-97 0 -147 53t-50 149q0 27 2 79.5t2 78.5q0 84 -10 143h112q8 -39 8 -118q0 -22 -3 -90t-3 -101q0 -50 25.5 -75t64.5 -25q47 0 74 41t27 124q0 115 -36 231l112 25q40 -131 40 -251q0 -125 -58 -194.5t-160 -69.5zM210 571l38 211l115 -20l-75 -206z" />
    <glyph glyph-name="omegatonos" unicode="&#x3ce;" horiz-adv-x="724" 
d="M227 -12q-83 0 -132 65.5t-49 187.5q0 136 83 262l107 -43q-41 -64 -61 -119.5t-20 -121.5q0 -64 20.5 -100.5t57.5 -36.5q76 0 76 107q0 39 -10 131h123q-10 -92 -10 -131q0 -107 73 -107q35 0 56 40t21 115q0 66 -15.5 115t-54.5 111l105 40q81 -127 81 -259
q0 -124 -46.5 -190t-131.5 -66q-45 0 -82 22.5t-55 68.5h-4q-36 -91 -132 -91zM318 571l38 211l115 -20l-75 -206z" />
    <glyph glyph-name="uni03D0" unicode="&#x3d0;" horiz-adv-x="576" 
d="M312 -12q-98 0 -169.5 61t-71.5 186v243q0 108 53 173t157 65q83 0 141 -45t58 -130q0 -109 -106 -158v-4q74 -8 118.5 -59.5t44.5 -125.5q0 -98 -64 -152t-161 -54zM182 468q0 -16 -0.5 -46t-1.5 -45q105 23 147 60.5t42 92.5q0 47 -23 70.5t-60 23.5q-49 0 -75.5 -40.5
t-28.5 -115.5zM308 88q51 0 83 30.5t32 82.5t-30.5 86t-90.5 34q-29 0 -123 -28v-46q0 -84 39.5 -121.5t89.5 -37.5z" />
    <glyph glyph-name="uni03D1" unicode="&#x3d1;" horiz-adv-x="536" 
d="M165 526q0 -148 204 -123q-5 119 -36.5 171t-84.5 50q-37 0 -60 -27.5t-23 -70.5zM266 -12q-92 0 -138.5 48t-46.5 136q0 82 -8 115h108q9 -20 9 -99q0 -106 81 -106q47 0 71.5 52.5t27.5 194.5q-71 -9 -127.5 0.5t-90 30t-56 51t-30.5 60t-8 59.5q0 81 53.5 134.5
t131.5 53.5q116 0 177.5 -92.5t61.5 -267.5q0 -193 -54.5 -281.5t-161.5 -88.5z" />
    <glyph glyph-name="uni03D5" unicode="&#x3d5;" horiz-adv-x="710" 
d="M303 -178v169q-112 4 -187 71.5t-75 187.5q0 137 105 259l95 -67q-43 -51 -63 -98t-20 -105q0 -71 38 -114t107 -47v199q0 114 46 170t123 56q91 0 144 -65t53 -179q0 -119 -76 -191t-184 -77q1 -58 5 -169h-111zM406 289q0 -140 1 -211q66 5 104.5 49t38.5 125
q0 75 -22.5 115.5t-59.5 40.5q-28 0 -45 -30t-17 -89z" />
    <glyph glyph-name="uni03D7" unicode="&#x3d7;" horiz-adv-x="520" 
d="M392 -187l-135 9q84 89 137 170q-73 92 -141 224q-8 -10 -26 -32q-45 -52 -45 -157v-27h-109v348q0 90 -10 143h114q9 -37 9 -118v-122h4q61 101 133.5 169t150.5 83l10 -108q-76 -20 -158 -101q37 -74 92 -155.5t107 -138.5q-70 -112 -133 -187z" />
    <glyph glyph-name="uni03D9" unicode="&#x3d9;" horiz-adv-x="544" 
d="M272 77q55 0 84 44.5t29 123.5q0 76 -29.5 120t-83.5 44t-83.5 -44t-29.5 -120q0 -79 29 -123.5t84 -44.5zM219 -178v172q-78 18 -128 84t-50 167q0 119 67 188.5t164 69.5t164 -69.5t67 -188.5q0 -99 -48.5 -164.5t-125.5 -85.5q2 -31 4 -87t3 -86h-117z" />
    <glyph glyph-name="uni03DB" unicode="&#x3db;" horiz-adv-x="478" 
d="M367 -186l-91 33q48 60 48 86q0 21 -15.5 34.5t-63.5 25.5q-90 22 -147 81.5t-57 165.5q0 123 70.5 187t182.5 64h158v-96q-44 2 -150 2q-67 0 -105 -39t-38 -118q0 -63 34.5 -99t105.5 -54q73 -18 100 -45.5t27 -77.5q0 -26 -15.5 -68t-43.5 -82z" />
    <glyph glyph-name="uni03DD" unicode="&#x3dd;" horiz-adv-x="423" 
d="M73 -178v669h324v-91h-217l2 -188h195v-78h-193q0 -141 6 -312h-117z" />
    <glyph glyph-name="uni03E1" unicode="&#x3e1;" horiz-adv-x="517" 
d="M480 -180l-113 14q18 89 18 185q0 49 -6 95q-111 -51 -233 -115l-47 97l262 117q-15 57 -37 106q-121 -54 -264 -128l-47 96l265 118q-79 125 -209 205l74 85q171 -111 263 -288.5t92 -388.5q0 -97 -18 -198z" />
    <glyph glyph-name="uni0400" unicode="&#x400;" horiz-adv-x="538" 
d="M83 0v654h394v-98h-278v-167h235v-98h-235v-193h288v-98h-404zM300 688l-168 117l62 76l157 -135z" />
    <glyph glyph-name="uni0401" unicode="&#x401;" horiz-adv-x="538" 
d="M83 0v654h394v-98h-278v-167h235v-98h-235v-193h288v-98h-404zM179 708q-26 0 -42.5 16.5t-16.5 42.5t16.5 43t42.5 17t43 -17t17 -43t-17 -42.5t-43 -16.5zM393 708q-26 0 -43 16.5t-17 42.5t17 43t43 17t42.5 -17t16.5 -43t-16.5 -42.5t-42.5 -16.5z" />
    <glyph glyph-name="uni0402" unicode="&#x402;" horiz-adv-x="694" 
d="M465 -12q-38 0 -66 10l19 90q15 -6 33 -6q34 0 59.5 26.5t25.5 82.5q0 120 -135 120q-45 0 -90 -9v-302h-116v556h-169v98h503v-98h-218v-160q51 8 106 8q104 0 168.5 -52t64.5 -160q0 -105 -51.5 -154.5t-133.5 -49.5z" />
    <glyph glyph-name="uni0403" unicode="&#x403;" horiz-adv-x="510" 
d="M83 0v654h395v-98h-279v-556h-116zM279 688l-51 58l157 135l62 -76z" />
    <glyph glyph-name="uni0404" unicode="&#x404;" horiz-adv-x="576" 
d="M344 -12q-132 0 -213.5 86.5t-81.5 250.5t83.5 252.5t215.5 88.5q112 0 189 -83l-62 -75q-57 57 -125 57q-74 0 -122 -44.5t-60 -131.5h248v-98h-251q16 -202 183 -202q78 0 140 67l62 -73q-83 -95 -206 -95z" />
    <glyph glyph-name="uni0405" unicode="&#x405;" horiz-adv-x="545" 
d="M274 -12q-138 0 -236 96l68 79q79 -74 170 -74q55 0 84.5 22.5t29.5 61.5q0 26 -15 44.5t-31.5 27t-54.5 24.5l-90 39q-132 56 -132 174q0 79 62.5 131.5t157.5 52.5q118 0 201 -83l-59 -74q-67 56 -142 56q-47 0 -75 -20.5t-28 -56.5q0 -24 17 -42.5t33.5 -26.5
t53.5 -23l89 -37q63 -27 97.5 -68.5t34.5 -108.5q0 -82 -64 -138t-171 -56z" />
    <glyph glyph-name="uni0406" unicode="&#x406;" horiz-adv-x="282" 
d="M83 0v654h116v-654h-116z" />
    <glyph glyph-name="uni0407" unicode="&#x407;" horiz-adv-x="282" 
d="M83 0v654h116v-654h-116zM34 708q-26 0 -42.5 16.5t-16.5 42.5t16.5 43t42.5 17t43 -17t17 -43t-17 -42.5t-43 -16.5zM248 708q-26 0 -43 16.5t-17 42.5t17 43t43 17t42.5 -17t16.5 -43t-16.5 -42.5t-42.5 -16.5z" />
    <glyph glyph-name="uni0408" unicode="&#x408;" horiz-adv-x="494" 
d="M219 -12q-133 0 -195 111l80 59q37 -69 102 -69q47 0 69.5 29t22.5 97v439h116v-449q0 -96 -48.5 -156.5t-146.5 -60.5z" />
    <glyph glyph-name="uni0409" unicode="&#x409;" horiz-adv-x="912" 
d="M71 -12q-41 0 -67 9l22 105q18 -4 28 -4q29 0 48 31.5t41 133.5q23 111 73 391h334v-253h72q115 0 182 -47t67 -146q0 -107 -67 -157.5t-182 -50.5h-188v556h-128q-6 -36 -24.5 -142t-29.5 -164q-29 -152 -69.5 -207t-111.5 -55zM550 93h62q146 0 146 113q0 102 -148 102
h-60v-215z" />
    <glyph glyph-name="uni040A" unicode="&#x40a;" horiz-adv-x="931" 
d="M83 0v654h116v-263h255v263h116v-253h72q115 0 181.5 -47.5t66.5 -145.5q0 -107 -67 -157.5t-182 -50.5h-187v290h-255v-290h-116zM570 93h61q146 0 146 113q0 102 -147 102h-60v-215z" />
    <glyph glyph-name="uni040B" unicode="&#x40b;" horiz-adv-x="707" 
d="M195 0v556h-169v98h503v-98h-218v-160q51 8 100 8q232 0 232 -214v-190h-113v190q0 63 -31.5 92t-100.5 29q-42 0 -87 -9v-302h-116z" />
    <glyph glyph-name="uni040C" unicode="&#x40c;" horiz-adv-x="601" 
d="M83 0v654h116v-266h93l88 158q38 69 73 94.5t87 25.5q29 0 45 -8l-19 -106q-10 4 -26 4q-23 0 -39.5 -14t-40.5 -56l-77 -137l218 -349h-123l-187 294h-92v-294h-116zM319 694l-51 58l157 135l62 -76z" />
    <glyph glyph-name="uni040D" unicode="&#x40d;" horiz-adv-x="666" 
d="M83 0v654h115v-284q0 -56 -15 -223h4l68 139l205 368h123v-654h-115v286q0 33 2.5 70t7 84t5.5 67h-4l-67 -138l-206 -369h-123zM351 694l-168 117l62 76l157 -135z" />
    <glyph glyph-name="uni040E" unicode="&#x40e;" horiz-adv-x="535" 
d="M147 -12q-45 0 -74 12l22 101q19 -7 45 -7q53 0 74 41l12 27l-223 492h123l99 -240l52 -143h4l49 143l90 240h117l-208 -520q-58 -146 -182 -146zM272 701q-156 0 -165 135h99q3 -75 66 -75t66 75h99q-9 -135 -165 -135z" />
    <glyph glyph-name="uni040F" unicode="&#x40f;" horiz-adv-x="654" 
d="M83 0v654h116v-556h256v556h116v-654h-182l-9 -188h-103v188h-194z" />
    <glyph glyph-name="uni0410" unicode="&#x410;" horiz-adv-x="558" 
d="M217 348l-23 -80h167l-23 80q-15 49 -59 216h-4q-33 -134 -58 -216zM-2 0l213 654h136l213 -654h-122l-51 177h-220l-51 -177h-118z" />
    <glyph glyph-name="uni0411" unicode="&#x411;" horiz-adv-x="590" 
d="M83 0v654h426v-98h-310v-167h107q113 0 179.5 -44.5t66.5 -141.5q0 -103 -65.5 -153t-176.5 -50h-227zM199 90h97q142 0 142 111q0 54 -35.5 77.5t-108.5 23.5h-95v-212z" />
    <glyph glyph-name="uni0412" unicode="&#x412;" horiz-adv-x="597" 
d="M83 0v654h209q234 0 234 -161q0 -48 -24.5 -87.5t-66.5 -54.5v-4q57 -13 91 -52.5t34 -102.5q0 -95 -69 -143.5t-182 -48.5h-226zM199 384h83q130 0 130 92q0 47 -31.5 67.5t-96.5 20.5h-85v-180zM199 90h98q150 0 150 108q0 99 -150 99h-98v-207z" />
    <glyph glyph-name="uni0413" unicode="&#x413;" horiz-adv-x="510" 
d="M83 0v654h395v-98h-279v-556h-116z" />
    <glyph glyph-name="uni0414" unicode="&#x414;" horiz-adv-x="654" 
d="M133 0v-188h-103l-11 214v72h30q52 18 93 230q14 76 56 326h360v-556h77v-72l-11 -214h-103v188h-388zM246 312q-27 -144 -70 -214h266v458h-154q-7 -41 -19.5 -116.5t-22.5 -127.5z" />
    <glyph glyph-name="uni0415" unicode="&#x415;" horiz-adv-x="538" 
d="M83 0v654h394v-98h-278v-167h235v-98h-235v-193h288v-98h-404z" />
    <glyph glyph-name="uni0416" unicode="&#x416;" horiz-adv-x="837" 
d="M4 0l194 347l-62 139q-20 42 -37.5 56t-42.5 14q-16 0 -26 -4l-19 106q16 8 45 8q53 0 90 -26t70 -94l74 -158h73v266h111v-266h73l73 158q34 68 71 94t90 26q29 0 45 -8l-20 -106q-9 4 -26 4q-24 0 -41.5 -14t-37.5 -56l-62 -139l194 -347h-126l-153 294h-80v-294h-111
v294h-80l-153 -294h-126z" />
    <glyph glyph-name="uni0417" unicode="&#x417;" horiz-adv-x="559" 
d="M276 -12q-142 0 -238 93l63 79q75 -71 174 -71q59 0 96.5 28.5t37.5 79.5q0 100 -147 100h-81v87h61q135 0 135 93q0 43 -30 65.5t-80 22.5q-76 0 -144 -55l-59 77q84 79 206 79q103 0 161.5 -46t58.5 -126q0 -107 -90 -144v-4q54 -12 88.5 -54t34.5 -103
q0 -94 -69.5 -147.5t-177.5 -53.5z" />
    <glyph glyph-name="uni0418" unicode="&#x418;" horiz-adv-x="666" 
d="M83 0v654h115v-284q0 -56 -15 -223h4l68 139l205 368h123v-654h-115v286q0 33 2.5 70t7 84t5.5 67h-4l-67 -138l-206 -369h-123z" />
    <glyph glyph-name="uni0419" unicode="&#x419;" horiz-adv-x="666" 
d="M83 0v654h115v-284q0 -56 -15 -223h4l68 139l205 368h123v-654h-115v286q0 33 2.5 70t7 84t5.5 67h-4l-67 -138l-206 -369h-123zM337 707q-156 0 -165 135h99q3 -75 66 -75t66 75h99q-9 -135 -165 -135z" />
    <glyph glyph-name="uni041A" unicode="&#x41a;" horiz-adv-x="601" 
d="M83 0v654h116v-266h93l88 158q38 69 73 94.5t87 25.5q29 0 45 -8l-19 -106q-10 4 -26 4q-23 0 -39.5 -14t-40.5 -56l-77 -137l218 -349h-123l-187 294h-92v-294h-116z" />
    <glyph glyph-name="uni041B" unicode="&#x41b;" horiz-adv-x="644" 
d="M61 -12q-42 0 -66 9l22 105q18 -4 28 -4q28 0 48 31.5t41 133.5q21 105 72 391h355v-654h-116v556h-149q-48 -268 -55 -305q-29 -153 -69 -208t-111 -55z" />
    <glyph glyph-name="uni041C" unicode="&#x41c;" horiz-adv-x="745" 
d="M83 0v654h131l116 -320q7 -20 42 -128h4q5 15 19 60t22 68l113 320h132v-654h-107v299q0 58 15 208h-4l-53 -152l-107 -294h-69l-108 294l-52 152h-4q15 -180 15 -208v-299h-105z" />
    <glyph glyph-name="uni041D" unicode="&#x41d;" horiz-adv-x="663" 
d="M83 0v654h116v-263h265v263h116v-654h-116v290h-265v-290h-116z" />
    <glyph glyph-name="uni041E" unicode="&#x41e;" horiz-adv-x="674" 
d="M337 -12q-129 0 -208.5 92.5t-79.5 249.5q0 156 79.5 246t208.5 90q130 0 209.5 -90t79.5 -246q0 -157 -79.5 -249.5t-209.5 -92.5zM337 89q77 0 123 65.5t46 175.5q0 109 -45.5 172t-123.5 63t-123.5 -63t-45.5 -172q0 -110 46 -175.5t123 -65.5z" />
    <glyph glyph-name="uni041F" unicode="&#x41f;" horiz-adv-x="654" 
d="M83 0v654h488v-654h-116v556h-256v-556h-116z" />
    <glyph glyph-name="uni0420" unicode="&#x420;" horiz-adv-x="582" 
d="M83 0v654h206q253 0 253 -202q0 -104 -69 -158t-180 -54h-94v-240h-116zM199 333h85q144 0 144 119q0 60 -36 84.5t-112 24.5h-81v-228z" />
    <glyph glyph-name="uni0421" unicode="&#x421;" horiz-adv-x="576" 
d="M344 -12q-128 0 -211.5 89.5t-83.5 247.5q0 156 85.5 248.5t213.5 92.5q112 0 189 -83l-62 -75q-57 57 -124 57q-81 0 -132 -64t-51 -173q0 -111 48.5 -175t131.5 -64q78 0 140 67l62 -73q-83 -95 -206 -95z" />
    <glyph glyph-name="uni0422" unicode="&#x422;" horiz-adv-x="546" 
d="M215 0v556h-189v98h494v-98h-189v-556h-116z" />
    <glyph glyph-name="uni0423" unicode="&#x423;" horiz-adv-x="535" 
d="M147 -12q-45 0 -74 12l22 101q19 -7 45 -7q53 0 74 41l12 27l-223 492h123l99 -240l52 -143h4l49 143l90 240h117l-208 -520q-58 -146 -182 -146z" />
    <glyph glyph-name="uni0424" unicode="&#x424;" horiz-adv-x="748" 
d="M155 330q0 -76 44 -118t125 -47v325q-81 -4 -125 -44.5t-44 -115.5zM593 330q0 75 -44 115.5t-125 44.5v-325q81 5 125 47t44 118zM324 -12v91q-131 5 -204.5 70t-73.5 181q0 115 73 178t205 68v90h100v-90q132 -5 205 -68t73 -178q0 -116 -73.5 -181t-204.5 -70v-91
h-100z" />
    <glyph glyph-name="uni0425" unicode="&#x425;" horiz-adv-x="541" 
d="M13 0l186 337l-174 317h129l72 -145q9 -16 25 -49.5t25 -50.5h4q27 67 44 100l69 145h123l-174 -322l186 -332h-129l-80 154l-25.5 51t-27.5 56h-4q-22 -52 -48 -107l-78 -154h-123z" />
    <glyph glyph-name="uni0426" unicode="&#x426;" horiz-adv-x="656" 
d="M83 0v654h116v-556h245v556h116v-556h77v-72l-11 -214h-103v188h-440z" />
    <glyph glyph-name="uni0427" unicode="&#x427;" horiz-adv-x="614" 
d="M415 0v278q-62 -8 -109 -8q-119 0 -180.5 53t-61.5 173v158h113v-158q0 -72 34 -102t107 -30q59 0 97 8v282h116v-654h-116z" />
    <glyph glyph-name="uni0428" unicode="&#x428;" horiz-adv-x="888" 
d="M83 0v654h114v-556h191v556h112v-556h191v556h114v-654h-722z" />
    <glyph glyph-name="uni0429" unicode="&#x429;" horiz-adv-x="900" 
d="M768 -188v188h-685v654h114v-556h191v556h112v-556h191v556h114v-556h76v-72l-11 -214h-102z" />
    <glyph glyph-name="uni042A" unicode="&#x42a;" horiz-adv-x="725" 
d="M227 0v556h-201v98h317v-253h89q112 0 182.5 -48.5t70.5 -144.5q0 -107 -66.5 -157.5t-180.5 -50.5h-211zM343 93h85q72 0 107.5 27t35.5 86q0 102 -149 102h-79v-215z" />
    <glyph glyph-name="uni042B" unicode="&#x42b;" horiz-adv-x="826" 
d="M83 0v654h116v-253h83q115 0 182 -47t67 -146q0 -107 -67 -157.5t-183 -50.5h-198zM199 93h73q145 0 145 113q0 102 -147 102h-71v-215zM627 0v654h116v-654h-116z" />
    <glyph glyph-name="uni042C" unicode="&#x42c;" horiz-adv-x="590" 
d="M83 0v654h116v-253h102q115 0 182 -47t67 -146q0 -107 -67 -157.5t-183 -50.5h-217zM199 93h92q145 0 145 113q0 102 -147 102h-90v-215z" />
    <glyph glyph-name="uni042D" unicode="&#x42d;" horiz-adv-x="576" 
d="M241 -12q-125 0 -214 95l62 73q67 -67 150 -67q75 0 120 50.5t53 151.5h-252v98h250q-22 176 -173 176q-75 0 -135 -57l-62 75q36 36 89.5 59.5t113.5 23.5q128 0 206.5 -88t78.5 -253q0 -164 -80 -250.5t-207 -86.5z" />
    <glyph glyph-name="uni042E" unicode="&#x42e;" horiz-adv-x="929" 
d="M602 -12q-118 0 -191.5 80.5t-83.5 221.5h-128v-290h-116v654h116v-263h130q14 130 86.5 202.5t186.5 72.5q127 0 202.5 -89.5t75.5 -246.5q0 -158 -75.5 -250t-202.5 -92zM602 89q74 0 116.5 65t42.5 176q0 110 -42 172.5t-117 62.5t-117.5 -62.5t-42.5 -172.5
q0 -111 42.5 -176t117.5 -65z" />
    <glyph glyph-name="uni042F" unicode="&#x42f;" horiz-adv-x="600" 
d="M400 0v256h-97l-153 -256h-133l175 271q-64 20 -100.5 67.5t-36.5 121.5q0 194 241 194h220v-654h-116zM308 348h92v213h-92q-70 0 -104 -23t-34 -78q0 -112 138 -112z" />
    <glyph glyph-name="uni0430" unicode="&#x430;" horiz-adv-x="516" 
d="M192 -12q-65 0 -105 40t-40 104q0 79 69 122.5t220 59.5q-4 96 -90 96q-57 0 -138 -48l-42 77q102 64 202 64q91 0 137 -54t46 -158v-291h-95l-8 54h-4q-78 -66 -152 -66zM229 78q48 0 107 54v110q-96 -12 -137 -37t-41 -64q0 -63 71 -63z" />
    <glyph glyph-name="uni0431" unicode="&#x431;" horiz-adv-x="553" 
d="M285 -12q-113 0 -175 82.5t-62 231.5q0 92 15 159.5t39.5 109t66 69t84 40.5t103.5 22q71 10 110 28l23 -102q-34 -24 -109 -34q-35 -5 -52 -7.5t-42 -8.5t-36.5 -11.5t-28 -16t-23.5 -23t-16 -31t-13 -42.5t-7 -55q59 71 153 71q85 0 139 -61t54 -168q0 -113 -63.5 -183
t-159.5 -70zM284 82q48 0 77 43.5t29 115.5q0 142 -107 142q-73 0 -125 -73v-33q0 -95 32 -145t94 -50z" />
    <glyph glyph-name="uni0432" unicode="&#x432;" horiz-adv-x="518" 
d="M73 0v491h199q190 0 190 -127q0 -37 -21 -64t-61 -39v-4q102 -25 102 -116q0 -71 -55 -106t-145 -35h-209zM186 292h75q90 0 90 60q0 61 -87 61h-78v-121zM186 78h88q95 0 95 70q0 66 -99 66h-84v-136z" />
    <glyph glyph-name="uni0433" unicode="&#x433;" horiz-adv-x="422" 
d="M73 0v491h323v-91h-208v-400h-115z" />
    <glyph glyph-name="uni0434" unicode="&#x434;" horiz-adv-x="558" 
d="M126 0v-172h-100l-11 189v75h28q21 11 36 50.5t27 142.5l24 206h337v-399h75v-75l-12 -189h-99v172h-305zM206 260q-13 -111 -47 -168h193v308h-131z" />
    <glyph glyph-name="uni0435" unicode="&#x435;" horiz-adv-x="507" 
d="M283 -12q-105 0 -173.5 69.5t-68.5 187.5q0 115 67.5 186.5t158.5 71.5q97 0 150 -63.5t53 -169.5q0 -36 -5 -56h-312q7 -65 46 -101t99 -36q58 0 114 36l39 -72q-80 -53 -168 -53zM152 292h218q0 58 -25.5 90t-74.5 32q-45 0 -78 -32t-40 -90z" />
    <glyph glyph-name="uni0436" unicode="&#x436;" horiz-adv-x="722" 
d="M10 0l155 257l-33 78q-24 58 -66 58q-9 0 -18 -3l-19 107q15 6 35 6q49 0 82.5 -23t59.5 -81l44 -99h60v191h102v-191h59l45 99q25 58 59 81t83 23q19 0 34 -6l-18 -107q-9 3 -18 3q-21 0 -36.5 -12t-29.5 -46l-33 -79l155 -256h-124l-113 208h-63v-208h-102v208h-63
l-113 -208h-124z" />
    <glyph glyph-name="uni0437" unicode="&#x437;" horiz-adv-x="466" 
d="M220 -12q-110 0 -188 60l47 74q57 -45 131 -45q46 0 76 19.5t30 52.5q0 65 -100 65h-73v78h63q93 0 93 62q0 60 -87 60q-68 0 -125 -38l-45 75q78 52 177 52q82 0 136.5 -34.5t54.5 -101.5q0 -35 -21 -64t-59 -42v-4q100 -25 100 -119q0 -69 -62 -109.5t-148 -40.5z" />
    <glyph glyph-name="uni0438" unicode="&#x438;" horiz-adv-x="574" 
d="M73 0v491h112v-169q0 -23 -10 -178h3q8 13 30 50.5t31 53.5l156 243h106v-491h-112v169q0 42 11 178h-4q-8 -13 -18.5 -32t-24 -41t-18.5 -31l-156 -243h-106z" />
    <glyph glyph-name="uni0439" unicode="&#x439;" horiz-adv-x="574" 
d="M73 0v491h112v-169q0 -23 -10 -178h3q8 13 30 50.5t31 53.5l156 243h106v-491h-112v169q0 42 11 178h-4q-8 -13 -18.5 -32t-24 -41t-18.5 -31l-156 -243h-106zM291 573q-81 0 -121.5 43.5t-42.5 114.5h91q3 -94 73 -94t73 94h91q-2 -71 -42.5 -114.5t-121.5 -43.5z" />
    <glyph glyph-name="uni043A" unicode="&#x43a;" horiz-adv-x="522" 
d="M73 0v491h115v-191h72l46 99q27 61 59.5 82.5t82.5 21.5q20 0 35 -6l-19 -107q-9 3 -18 3q-20 0 -35.5 -11.5t-30.5 -46.5l-34 -76l167 -259h-127l-124 208h-74v-208h-115z" />
    <glyph glyph-name="uni043B" unicode="&#x43b;" horiz-adv-x="552" 
d="M60 -12q-29 0 -52 10l20 104q14 -4 24 -4q48 0 59 88q14 108 35 305h333v-491h-115v400h-126l-15 -123t-15 -122q-23 -167 -148 -167z" />
    <glyph glyph-name="uni043C" unicode="&#x43c;" horiz-adv-x="647" 
d="M73 0v491h132l79 -198q34 -99 39 -115h4q38 108 40 115l75 198h132v-491h-104v172q0 53 13 191h-4q-8 -23 -25 -67.5t-22 -59.5l-74 -192h-68l-76 192q-6 17 -22.5 61t-24.5 66h-4q12 -159 12 -191v-172h-102z" />
    <glyph glyph-name="uni043D" unicode="&#x43d;" horiz-adv-x="572" 
d="M73 0v491h115v-188h196v188h115v-491h-115v202h-196v-202h-115z" />
    <glyph glyph-name="uni043E" unicode="&#x43e;" horiz-adv-x="549" 
d="M274 -12q-96 0 -164.5 70t-68.5 187q0 118 68.5 188t164.5 70q97 0 165.5 -70t68.5 -188t-68.5 -187.5t-165.5 -69.5zM274 82q54 0 85 44.5t31 118.5q0 75 -31 119.5t-85 44.5t-84.5 -44.5t-30.5 -119.5q0 -74 31 -118.5t84 -44.5z" />
    <glyph glyph-name="uni043F" unicode="&#x43f;" horiz-adv-x="564" 
d="M73 0v491h417v-491h-115v400h-187v-400h-115z" />
    <glyph glyph-name="uni0440" unicode="&#x440;" horiz-adv-x="564" 
d="M73 -194v685h95l8 -52h4q75 64 148 64q91 0 142 -67.5t51 -182.5q0 -121 -62 -193t-148 -72q-62 0 -126 54l3 -82v-154h-115zM287 83q51 0 83 44t32 125q0 156 -106 156q-52 0 -108 -55v-229q49 -41 99 -41z" />
    <glyph glyph-name="uni0441" unicode="&#x441;" horiz-adv-x="462" 
d="M278 -12q-103 0 -170 69t-67 188q0 118 71.5 188t174.5 70q80 0 144 -55l-56 -75q-41 36 -82 36q-60 0 -97 -45t-37 -119q0 -73 36.5 -118t94.5 -45q50 0 101 42l47 -76q-69 -60 -160 -60z" />
    <glyph glyph-name="uni0442" unicode="&#x442;" horiz-adv-x="476" 
d="M180 0v400h-154v91h424v-91h-154v-400h-116z" />
    <glyph glyph-name="uni0443" unicode="&#x443;" horiz-adv-x="495" 
d="M106 -202q-34 0 -64 10l21 90q21 -7 35 -7q71 0 98 84l9 31l-193 485h117l85 -241q7 -21 21 -67.5t22 -70.5h4q28 105 37 138l74 241h111l-178 -513q-33 -90 -78 -135t-121 -45z" />
    <glyph glyph-name="uni0444" unicode="&#x444;" horiz-adv-x="757" 
d="M322 -194v141l4 74q-50 -33 -95 -33q-86 0 -137 68.5t-51 188.5q0 116 55.5 187t132.5 71q49 0 95 -31l-4 72v162h113v-162l-4 -75q54 34 103 34q84 0 132 -67.5t48 -182.5q0 -121 -55.5 -193t-134.5 -72q-48 0 -93 31l4 -72v-141h-113zM259 83q38 0 67 28v271
q-31 26 -71 26t-66.5 -43.5t-26.5 -118.5q0 -79 25 -121t72 -42zM499 83q43 0 69.5 44t26.5 125q0 156 -93 156q-39 0 -71 -27v-272q31 -26 68 -26z" />
    <glyph glyph-name="uni0445" unicode="&#x445;" horiz-adv-x="481" 
d="M14 0l156 256l-146 235h124l55 -93q16 -30 45 -83h4q6 13 19 41t19 42l47 93h119l-145 -248l156 -243h-124l-60 97q-28 51 -50 87h-4q-36 -72 -43 -87l-52 -97h-120z" />
    <glyph glyph-name="uni0446" unicode="&#x446;" horiz-adv-x="575" 
d="M73 0v491h115v-399h182v399h115v-399h75v-75l-12 -189h-99v172h-376z" />
    <glyph glyph-name="uni0447" unicode="&#x447;" horiz-adv-x="531" 
d="M343 0v181q-47 -9 -91 -9q-198 0 -198 181v138h115v-138q0 -46 25.5 -67.5t81.5 -21.5q35 0 67 7v220h115v-491h-115z" />
    <glyph glyph-name="uni0448" unicode="&#x448;" horiz-adv-x="777" 
d="M73 0v491h114v-399h146v399h111v-399h146v399h114v-491h-631z" />
    <glyph glyph-name="uni0449" unicode="&#x449;" horiz-adv-x="794" 
d="M668 -172v172h-595v491h114v-399h146v399h111v-399h146v399h114v-399h74v-75l-11 -189h-99z" />
    <glyph glyph-name="uni044A" unicode="&#x44a;" horiz-adv-x="610" 
d="M186 0v400h-160v91h275v-168h67q94 0 148.5 -39t54.5 -121q0 -84 -54.5 -123.5t-148.5 -39.5h-182zM301 89h59q100 0 100 75q0 72 -100 72h-59v-147z" />
    <glyph glyph-name="uni044B" unicode="&#x44b;" horiz-adv-x="707" 
d="M73 0v491h115v-168h52q94 0 149 -39t55 -121q0 -84 -55 -123.5t-149 -39.5h-167zM188 89h45q99 0 99 75q0 72 -99 72h-45v-147zM519 0v491h115v-491h-115z" />
    <glyph glyph-name="uni044C" unicode="&#x44c;" horiz-adv-x="504" 
d="M73 0v491h115v-168h74q94 0 148.5 -39t54.5 -121q0 -84 -54.5 -123.5t-148.5 -39.5h-189zM188 89h66q100 0 100 75q0 72 -100 72h-66v-147z" />
    <glyph glyph-name="uni044D" unicode="&#x44d;" horiz-adv-x="462" 
d="M185 -12q-98 0 -163 60l45 69q47 -40 106 -40q125 0 138 137h-193v78h191q-19 122 -129 122q-54 0 -98 -36l-51 68q61 57 155 57q103 0 169 -66t66 -192q0 -124 -65.5 -190.5t-170.5 -66.5z" />
    <glyph glyph-name="uni044E" unicode="&#x44e;" horiz-adv-x="757" 
d="M498 -12q-88 0 -148 56.5t-72 155.5h-90v-200h-115v491h115v-189h91q15 94 74.5 147.5t144.5 53.5q94 0 156 -69.5t62 -188.5t-62 -188t-156 -69zM492 82q50 0 78 44t28 119t-28 119.5t-78 44.5q-49 0 -79 -45t-30 -119t30 -118.5t79 -44.5z" />
    <glyph glyph-name="uni044F" unicode="&#x44f;" horiz-adv-x="530" 
d="M341 0v176h-72h-2l-115 -176h-129l139 196q-97 42 -97 141q0 154 199 154h192v-491h-115zM280 257h61v148h-61q-101 0 -101 -71q0 -36 26.5 -56.5t74.5 -20.5z" />
    <glyph glyph-name="uni0450" unicode="&#x450;" horiz-adv-x="507" 
d="M283 -12q-105 0 -173.5 69.5t-68.5 187.5q0 115 67.5 186.5t158.5 71.5q97 0 150 -63.5t53 -169.5q0 -36 -5 -56h-312q7 -65 46 -101t99 -36q58 0 114 36l39 -72q-80 -53 -168 -53zM152 292h218q0 58 -25.5 90t-74.5 32q-45 0 -78 -32t-40 -90zM269 573l-170 155l80 76
l147 -174z" />
    <glyph glyph-name="uni0451" unicode="&#x451;" horiz-adv-x="507" 
d="M283 -12q-105 0 -173.5 69.5t-68.5 187.5q0 115 67.5 186.5t158.5 71.5q97 0 150 -63.5t53 -169.5q0 -36 -5 -56h-312q7 -65 46 -101t99 -36q58 0 114 36l39 -72q-80 -53 -168 -53zM152 292h218q0 58 -25.5 90t-74.5 32q-45 0 -78 -32t-40 -90zM164 578q-26 0 -43.5 17.5
t-17.5 43.5t17.5 43.5t43.5 17.5q27 0 44 -17.5t17 -43.5t-17 -43.5t-44 -17.5zM370 578q-27 0 -44 17.5t-17 43.5t17 43.5t44 17.5q26 0 43.5 -17.5t17.5 -43.5t-17.5 -43.5t-43.5 -17.5z" />
    <glyph glyph-name="uni0452" unicode="&#x452;" horiz-adv-x="560" 
d="M298 -206q-39 0 -69 13l21 86q24 -8 38 -8q52 0 81 61.5t29 215.5q0 113 -25 155.5t-79 42.5q-48 0 -106 -59v-301h-115v564h-71v54l71 5v83h115v-83h176v-59h-176v-84l-5 -94q75 73 151 73q183 0 183 -283q0 -108 -15 -183.5t-44.5 -118.5t-68 -61.5t-91.5 -18.5z" />
    <glyph glyph-name="uni0453" unicode="&#x453;" horiz-adv-x="422" 
d="M73 0v491h323v-91h-208v-400h-115zM243 574l-57 57l147 174l80 -76z" />
    <glyph glyph-name="uni0454" unicode="&#x454;" horiz-adv-x="462" 
d="M278 -12q-106 0 -171.5 66.5t-65.5 190.5t69.5 191t175.5 67q81 0 145 -55l-51 -71q-45 37 -94 37q-53 0 -87.5 -30.5t-44.5 -91.5h196v-78h-199q15 -137 139 -137q55 0 105 43l43 -72q-69 -60 -160 -60z" />
    <glyph glyph-name="uni0455" unicode="&#x455;" horiz-adv-x="431" 
d="M210 -12q-102 0 -186 68l54 74q71 -55 136 -55q38 0 58 16t20 43q0 15 -7.5 26t-27.5 22t-30 15l-40 16q-62 23 -100 55.5t-38 87.5q0 65 48.5 106t130.5 41q87 0 163 -59l-53 -70q-57 42 -108 42q-35 0 -53.5 -15t-18.5 -39q0 -17 14.5 -30.5t31.5 -21t47 -18.5l9 -3
q32 -12 51.5 -21.5t43 -27t35 -42.5t11.5 -58q0 -66 -50.5 -109t-140.5 -43z" />
    <glyph glyph-name="uni0456" unicode="&#x456;" horiz-adv-x="262" 
d="M73 0v491h115v-491h-115zM131 577q-31 0 -51 18.5t-20 46.5q0 29 20 47.5t51 18.5t51 -18.5t20 -47.5q0 -28 -20 -46.5t-51 -18.5z" />
    <glyph glyph-name="uni0457" unicode="&#x457;" horiz-adv-x="262" 
d="M73 0v491h115v-491h-115zM28 578q-26 0 -43.5 17.5t-17.5 43.5t17.5 43.5t43.5 17.5q27 0 44 -17.5t17 -43.5t-17 -43.5t-44 -17.5zM234 578q-27 0 -44 17.5t-17 43.5t17 43.5t44 17.5q26 0 43.5 -17.5t17.5 -43.5t-17.5 -43.5t-43.5 -17.5z" />
    <glyph glyph-name="uni0458" unicode="&#x458;" horiz-adv-x="263" 
d="M34 -206q-45 0 -80 13l22 86q26 -8 42 -8q32 0 44 21.5t12 66.5v518h116v-516q0 -181 -156 -181zM132 577q-30 0 -50.5 18.5t-20.5 46.5q0 29 20.5 47.5t50.5 18.5q31 0 51.5 -18.5t20.5 -47.5q0 -28 -20.5 -46.5t-51.5 -18.5z" />
    <glyph glyph-name="uni0459" unicode="&#x459;" horiz-adv-x="758" 
d="M61 -12q-29 0 -52 10l20 104q14 -4 23 -4q46 0 62 88q16 97 26 305h324v-168h52q94 0 148.5 -39t54.5 -121q0 -84 -54.5 -123.5t-148.5 -39.5h-167v400h-110q-10 -177 -27 -265q-29 -147 -151 -147zM464 89h44q100 0 100 75q0 72 -100 72h-44v-147z" />
    <glyph glyph-name="uni045A" unicode="&#x45a;" horiz-adv-x="774" 
d="M73 0v491h115v-188h177v188h115v-168h52q94 0 148.5 -39t54.5 -121q0 -84 -54.5 -123.5t-148.5 -39.5h-167v202h-177v-202h-115zM480 89h44q100 0 100 75q0 72 -100 72h-44v-147z" />
    <glyph glyph-name="uni045B" unicode="&#x45b;" horiz-adv-x="558" 
d="M73 0v564h-71v54l71 5v83h115v-83h176v-59h-176v-84l-4 -95q78 74 157 74q151 0 151 -195v-264h-115v249q0 60 -18 85.5t-59 25.5q-30 0 -54 -14t-58 -47v-299h-115z" />
    <glyph glyph-name="uni045C" unicode="&#x45c;" horiz-adv-x="522" 
d="M73 0v491h115v-191h72l46 99q27 61 59.5 82.5t82.5 21.5q20 0 35 -6l-19 -107q-9 3 -18 3q-20 0 -35.5 -11.5t-30.5 -46.5l-34 -76l167 -259h-127l-124 208h-74v-208h-115zM284 574l-57 57l147 174l80 -76z" />
    <glyph glyph-name="uni045D" unicode="&#x45d;" horiz-adv-x="574" 
d="M73 0v491h112v-169q0 -23 -10 -178h3q8 13 30 50.5t31 53.5l156 243h106v-491h-112v169q0 42 11 178h-4q-8 -13 -18.5 -32t-24 -41t-18.5 -31l-156 -243h-106zM293 574l-170 155l80 76l147 -174z" />
    <glyph glyph-name="uni045E" unicode="&#x45e;" horiz-adv-x="495" 
d="M106 -202q-34 0 -64 10l21 90q21 -7 35 -7q71 0 98 84l9 31l-193 485h117l85 -241q7 -21 21 -67.5t22 -70.5h4q28 105 37 138l74 241h111l-178 -513q-33 -90 -78 -135t-121 -45zM255 572q-81 0 -121.5 43.5t-42.5 114.5h91q3 -94 73 -94t73 94h91q-2 -71 -42.5 -114.5
t-121.5 -43.5z" />
    <glyph glyph-name="uni045F" unicode="&#x45f;" horiz-adv-x="568" 
d="M73 0v491h115v-399h192v399h115v-491h-152l-12 -172h-99l-4 172h-155z" />
    <glyph glyph-name="uni0462" unicode="&#x462;" horiz-adv-x="619" 
d="M155 0v495h-129v93h129v110h116v-110h225v-93h-225v-115h59q114 0 181.5 -42.5t67.5 -133.5q0 -204 -243 -204h-181zM271 90h55q71 0 105 25.5t34 83.5q0 51 -34.5 74t-110.5 23h-49v-206z" />
    <glyph glyph-name="uni0463" unicode="&#x463;" horiz-adv-x="588" 
d="M166 0v432h-140v92h140v101h115v-101h178v-92h-178v-109h65q94 0 149 -39t55 -121q0 -84 -55 -123.5t-149 -39.5h-180zM281 89h58q99 0 99 75q0 72 -99 72h-58v-147z" />
    <glyph glyph-name="uni0472" unicode="&#x472;" horiz-adv-x="674" 
d="M337 -12q-130 0 -209 90t-79 252q0 161 78.5 248.5t209.5 87.5t210 -88t79 -248q0 -162 -79.5 -252t-209.5 -90zM337 570q-70 0 -115 -47.5t-55 -136.5h341q-10 89 -55 136.5t-116 47.5zM337 84q74 0 120 54.5t53 155.5h-345q7 -101 52.5 -155.5t119.5 -54.5z" />
    <glyph glyph-name="uni0473" unicode="&#x473;" horiz-adv-x="549" 
d="M274 -12q-98 0 -165.5 68t-67.5 189q0 122 67 190t166 68t166.5 -68t67.5 -190q0 -121 -67.5 -189t-166.5 -68zM274 416q-49 0 -80.5 -32.5t-41.5 -91.5h245q-10 59 -42 91.5t-81 32.5zM274 76q52 0 85 36t40 102h-249q7 -66 39.5 -102t84.5 -36z" />
    <glyph glyph-name="uni0474" unicode="&#x474;" horiz-adv-x="552" 
d="M200 0l-204 654h123l92 -329q8 -29 27 -100t31 -113h4q8 33 24 102.5t27 110.5l50 184q21 84 56 120.5t96 36.5q34 0 60 -10l-22 -106q-16 6 -28 6q-39 0 -58 -68l-134 -488h-144z" />
    <glyph glyph-name="uni0475" unicode="&#x475;" horiz-adv-x="505" 
d="M183 0l-171 491h117l78 -255q6 -21 20.5 -71t21.5 -77h4q25 114 35 148l34 110q22 83 54.5 120t89.5 37q34 0 60 -10l-21 -99q-21 6 -27 6q-37 0 -58 -69l-97 -331h-140z" />
    <glyph glyph-name="uni0490" unicode="&#x490;" horiz-adv-x="510" 
d="M83 0v654h288l18 172h99l-10 -270h-279v-556h-116z" />
    <glyph glyph-name="uni0491" unicode="&#x491;" horiz-adv-x="425" 
d="M73 0v491h223l18 172h94l-9 -263h-211v-400h-115z" />
    <glyph glyph-name="uni0492" unicode="&#x492;" horiz-adv-x="534" 
d="M30 295v55l77 4v300h395v-98h-279v-202h137v-59h-137v-295h-116v295h-77z" />
    <glyph glyph-name="uni0493" unicode="&#x493;" horiz-adv-x="441" 
d="M27 203v54l66 5v229h323v-91h-208v-138h126v-59h-126v-203h-115v203h-66z" />
    <glyph glyph-name="uni0496" unicode="&#x496;" horiz-adv-x="877" 
d="M744 -188v188h-37l-153 294h-80v-294h-111v294h-80l-153 -294h-126l194 347l-62 139q-20 42 -37.5 56t-42.5 14q-16 0 -26 -4l-19 106q16 8 45 8q53 0 90 -26t70 -94l74 -158h73v266h111v-266h73l73 158q34 68 71 94t90 26q29 0 45 -8l-20 -106q-9 4 -26 4
q-24 0 -41.5 -14t-37.5 -56l-62 -139l139 -249h80v-72l-11 -214h-103z" />
    <glyph glyph-name="uni0497" unicode="&#x497;" horiz-adv-x="762" 
d="M637 -172v172h-49l-113 208h-63v-208h-102v208h-63l-113 -208h-124l155 257l-33 78q-24 58 -66 58q-9 0 -18 -3l-19 107q15 6 35 6q49 0 82.5 -23t59.5 -81l44 -99h60v191h102v-191h59l45 99q25 58 59 81t83 23q19 0 34 -6l-18 -107q-9 3 -18 3q-21 0 -36.5 -12
t-29.5 -46l-33 -79l99 -164h90v-75l-11 -189h-98z" />
    <glyph glyph-name="uni0498" unicode="&#x498;" horiz-adv-x="559" 
d="M228 -188v179q-109 12 -190 90l63 79q75 -71 174 -71q59 0 96.5 28.5t37.5 79.5q0 100 -147 100h-81v87h61q135 0 135 93q0 43 -30 65.5t-80 22.5q-76 0 -144 -55l-59 77q84 79 206 79q103 0 161.5 -46t58.5 -126q0 -107 -90 -144v-4q54 -12 88.5 -54t34.5 -103
q0 -79 -49.5 -129.5t-132.5 -65.5l-10 -182h-103z" />
    <glyph glyph-name="uni0499" unicode="&#x499;" horiz-adv-x="466" 
d="M174 -172l-4 163q-76 10 -138 57l47 74q57 -45 131 -45q46 0 76 19.5t30 52.5q0 65 -100 65h-73v78h63q93 0 93 62q0 60 -87 60q-68 0 -125 -38l-45 75q78 52 177 52q82 0 136.5 -34.5t54.5 -101.5q0 -35 -21 -64t-59 -42v-4q100 -25 100 -119q0 -55 -41 -93t-105 -51
l-13 -166h-97z" />
    <glyph glyph-name="uni049A" unicode="&#x49a;" horiz-adv-x="648" 
d="M515 -188v188h-37l-187 294h-92v-294h-116v654h116v-266h93l88 158q38 69 73 94.5t87 25.5q29 0 45 -8l-19 -106q-10 4 -26 4q-23 0 -39.5 -14t-40.5 -56l-77 -137l157 -251h88v-72l-10 -214h-103z" />
    <glyph glyph-name="uni049B" unicode="&#x49b;" horiz-adv-x="562" 
d="M438 -172v172h-52l-124 208h-74v-208h-115v491h115v-191h72l46 99q27 61 59.5 82.5t82.5 21.5q20 0 35 -6l-19 -107q-9 3 -18 3q-20 0 -35.5 -11.5t-30.5 -46.5l-34 -76l108 -167h93v-75l-11 -189h-98z" />
    <glyph glyph-name="uni04A0" unicode="&#x4a0;" horiz-adv-x="733" 
d="M215 0v556h-189v98h305v-266h93l88 158q38 69 73 94.5t87 25.5q29 0 45 -8l-19 -106q-10 4 -26 4q-23 0 -39.5 -14t-40.5 -56l-77 -137l218 -349h-123l-187 294h-92v-294h-116z" />
    <glyph glyph-name="uni04A1" unicode="&#x4a1;" horiz-adv-x="635" 
d="M186 0v400h-160v91h275v-191h72l46 99q27 61 59.5 82.5t82.5 21.5q20 0 35 -6l-19 -107q-9 3 -18 3q-21 0 -36 -11.5t-30 -46.5l-34 -77l167 -258h-127l-124 208h-74v-208h-115z" />
    <glyph glyph-name="uni04A2" unicode="&#x4a2;" horiz-adv-x="675" 
d="M542 -188v188h-78v290h-265v-290h-116v654h116v-263h265v263h116v-556h76v-72l-11 -214h-103z" />
    <glyph glyph-name="uni04A3" unicode="&#x4a3;" horiz-adv-x="589" 
d="M464 -172v172h-79v202h-196v-202h-115v491h115v-188h196v188h115v-399h74v-75l-11 -189h-99z" />
    <glyph glyph-name="uni04AA" unicode="&#x4aa;" horiz-adv-x="576" 
d="M289 -188v181q-107 19 -173.5 105.5t-66.5 226.5q0 156 85.5 248.5t213.5 92.5q112 0 189 -83l-62 -75q-57 57 -124 57q-81 0 -132 -64t-51 -173q0 -111 48.5 -175t131.5 -64q78 0 140 67l62 -73q-64 -73 -149 -89l-9 -182h-103z" />
    <glyph glyph-name="uni04AB" unicode="&#x4ab;" horiz-adv-x="462" 
d="M222 -172l-4 167q-80 19 -128.5 84t-48.5 166q0 118 71.5 188t174.5 70q80 0 144 -55l-56 -75q-41 36 -82 36q-60 0 -97 -45t-37 -119q0 -73 36.5 -118t94.5 -45q50 0 101 42l47 -76q-46 -40 -106 -54l-13 -166h-97z" />
    <glyph glyph-name="uni04AE" unicode="&#x4ae;" horiz-adv-x="501" 
d="M192 0v243l-196 411h124l71 -167q30 -77 58 -144h4q54 129 60 144l71 167h121l-197 -411v-243h-116z" />
    <glyph glyph-name="uni04AF" unicode="&#x4af;" horiz-adv-x="495" 
d="M193 -194v194l-181 491h117l77 -242q7 -25 21.5 -73t20.5 -71h4q4 15 20 65.5t23 78.5l77 242h111l-175 -491v-194h-115z" />
    <glyph glyph-name="uni04B0" unicode="&#x4b0;" horiz-adv-x="501" 
d="M52 229v55l91 4h28l-175 366h124l71 -167q30 -77 58 -144h4q54 129 60 144l71 167h121l-175 -366h119v-59h-141v-229h-116v229h-140z" />
    <glyph glyph-name="uni04B1" unicode="&#x4b1;" horiz-adv-x="495" 
d="M193 -194v194h-145v54l77 5h46l-159 432h117l77 -242q7 -25 21.5 -73t20.5 -71h4q4 15 20 65.5t23 78.5l77 242h111l-154 -432h118v-59h-139v-194h-115z" />
    <glyph glyph-name="uni04B2" unicode="&#x4b2;" horiz-adv-x="579" 
d="M448 -188v188h-49l-80 154l-25.5 51t-27.5 56h-4q-22 -52 -48 -107l-78 -154h-123l186 337l-174 317h129l72 -145q9 -16 25 -49.5t25 -50.5h4q27 67 44 100l69 145h123l-174 -322l131 -234h87v-72l-11 -214h-101z" />
    <glyph glyph-name="uni04B3" unicode="&#x4b3;" horiz-adv-x="516" 
d="M391 -172v172h-48l-60 97q-28 51 -50 87h-4q-36 -72 -43 -87l-52 -97h-120l156 256l-146 235h124l55 -93q16 -30 45 -83h4q6 13 19 41t19 42l47 93h119l-145 -248l97 -151h92v-75l-11 -189h-98z" />
    <glyph glyph-name="uni04B6" unicode="&#x4b6;" horiz-adv-x="626" 
d="M496 -188v188h-81v278q-62 -8 -109 -8q-119 0 -180.5 53t-61.5 173v158h113v-158q0 -72 34 -102t107 -30q59 0 97 8v282h116v-556h76v-72l-11 -214h-100z" />
    <glyph glyph-name="uni04B7" unicode="&#x4b7;" horiz-adv-x="548" 
d="M424 -172v172h-81v181q-47 -9 -91 -9q-198 0 -198 181v138h115v-138q0 -46 25.5 -67.5t81.5 -21.5q35 0 67 7v220h115v-399h75v-75l-11 -189h-98z" />
    <glyph glyph-name="uni04BA" unicode="&#x4ba;" horiz-adv-x="614" 
d="M83 0v654h116v-247q50 8 109 8q119 0 180.5 -52.5t61.5 -173.5v-189h-113v189q0 72 -34 102.5t-107 30.5q-54 0 -97 -9v-313h-116z" />
    <glyph glyph-name="uni04BB" unicode="&#x4bb;" horiz-adv-x="558" 
d="M73 0v706h115v-182l-4 -95q78 74 157 74q151 0 151 -195v-308h-115v293q0 60 -18 85.5t-59 25.5q-30 0 -54 -14t-58 -47v-343h-115z" />
    <glyph glyph-name="uni04C0" unicode="&#x4c0;" horiz-adv-x="282" 
d="M83 0v654h116v-654h-116z" />
    <glyph glyph-name="uni04C1" unicode="&#x4c1;" horiz-adv-x="837" 
d="M4 0l194 347l-62 139q-20 42 -37.5 56t-42.5 14q-16 0 -26 -4l-19 106q16 8 45 8q53 0 90 -26t70 -94l74 -158h73v266h111v-266h73l73 158q34 68 71 94t90 26q29 0 45 -8l-20 -106q-9 4 -26 4q-24 0 -41.5 -14t-37.5 -56l-62 -139l194 -347h-126l-153 294h-80v-294h-111
v294h-80l-153 -294h-126zM418 701q-156 0 -165 135h99q3 -75 66 -75t66 75h99q-9 -135 -165 -135z" />
    <glyph glyph-name="uni04C2" unicode="&#x4c2;" horiz-adv-x="722" 
d="M10 0l155 257l-33 78q-24 58 -66 58q-9 0 -18 -3l-19 107q15 6 35 6q49 0 82.5 -23t59.5 -81l44 -99h60v191h102v-191h59l45 99q25 58 59 81t83 23q19 0 34 -6l-18 -107q-9 3 -18 3q-21 0 -36.5 -12t-29.5 -46l-33 -79l155 -256h-124l-113 208h-63v-208h-102v208h-63
l-113 -208h-124zM361 572q-81 0 -121.5 43.5t-42.5 114.5h91q3 -94 73 -94t73 94h91q-2 -71 -42.5 -114.5t-121.5 -43.5z" />
    <glyph glyph-name="uni04CF" unicode="&#x4cf;" horiz-adv-x="271" 
d="M185 -12q-112 0 -112 138v580h115v-586q0 -38 25 -38q9 0 18 2l15 -86q-23 -10 -61 -10z" />
    <glyph glyph-name="uni04D0" unicode="&#x4d0;" horiz-adv-x="558" 
d="M217 348l-23 -80h167l-23 80q-15 49 -59 216h-4q-33 -134 -58 -216zM-2 0l213 654h136l213 -654h-122l-51 177h-220l-51 -177h-118zM279 701q-156 0 -165 135h99q3 -75 66 -75t66 75h99q-9 -135 -165 -135z" />
    <glyph glyph-name="uni04D1" unicode="&#x4d1;" horiz-adv-x="516" 
d="M192 -12q-65 0 -105 40t-40 104q0 79 69 122.5t220 59.5q-4 96 -90 96q-57 0 -138 -48l-42 77q102 64 202 64q91 0 137 -54t46 -158v-291h-95l-8 54h-4q-78 -66 -152 -66zM229 78q48 0 107 54v110q-96 -12 -137 -37t-41 -64q0 -63 71 -63zM269 572q-81 0 -121.5 43.5
t-42.5 114.5h91q3 -94 73 -94t73 94h91q-2 -71 -42.5 -114.5t-121.5 -43.5z" />
    <glyph glyph-name="uni04D4" unicode="&#x4d4;" horiz-adv-x="834" 
d="M297 366l-51 -105h148v304h-4q-15 -31 -46 -98t-47 -101zM-3 0l327 654h449v-98h-263v-167h221v-98h-221v-193h273v-98h-389v170h-192l-83 -170h-122z" />
    <glyph glyph-name="uni04D5" unicode="&#x4d5;" horiz-adv-x="785" 
d="M198 -12q-65 0 -105.5 40t-40.5 104q0 79 68.5 122.5t217.5 59.5q-4 96 -88 96q-57 0 -136 -48l-42 77q102 64 193 64q99 0 139 -89q64 89 153 89q91 0 141 -64.5t50 -170.5q0 -34 -5 -54h-300q6 -62 43.5 -98t91.5 -36q52 0 111 38l41 -77q-80 -53 -167 -53
q-101 0 -171 84q-98 -84 -194 -84zM234 78q62 0 120 58q-14 33 -16 83l-2 23q-172 -23 -172 -101q0 -63 70 -63zM443 287h206q0 60 -24.5 93.5t-71.5 33.5q-43 0 -73 -33.5t-37 -93.5z" />
    <glyph glyph-name="uni04D6" unicode="&#x4d6;" horiz-adv-x="538" 
d="M83 0v654h394v-98h-278v-167h235v-98h-235v-193h288v-98h-404zM286 701q-156 0 -165 135h99q3 -75 66 -75t66 75h99q-9 -135 -165 -135z" />
    <glyph glyph-name="uni04D7" unicode="&#x4d7;" horiz-adv-x="507" 
d="M283 -12q-105 0 -173.5 69.5t-68.5 187.5q0 115 67.5 186.5t158.5 71.5q97 0 150 -63.5t53 -169.5q0 -36 -5 -56h-312q7 -65 46 -101t99 -36q58 0 114 36l39 -72q-80 -53 -168 -53zM152 292h218q0 58 -25.5 90t-74.5 32q-45 0 -78 -32t-40 -90zM267 572
q-81 0 -121.5 43.5t-42.5 114.5h91q3 -94 73 -94t73 94h91q-2 -71 -42.5 -114.5t-121.5 -43.5z" />
    <glyph glyph-name="uni04D8" unicode="&#x4d8;" horiz-adv-x="667" 
d="M332 -12q-130 0 -204 89t-74 247q0 6 1.5 20.5t1.5 16.5h445q-12 210 -178 210q-82 0 -152 -63l-54 79q86 79 218 79q131 0 206.5 -88t75.5 -250t-77.5 -251t-208.5 -89zM332 83q71 0 114.5 48.5t53.5 143.5h-327q4 -94 46.5 -143t112.5 -49z" />
    <glyph glyph-name="uni04D9" unicode="&#x4d9;" horiz-adv-x="507" 
d="M244 -12q-97 0 -152 64.5t-55 172.5q0 37 5 57h312q-7 63 -40.5 97.5t-89.5 34.5q-59 0 -117 -37l-39 76q74 50 175 50q98 0 160.5 -69.5t62.5 -187.5q0 -117 -64 -187.5t-158 -70.5zM241 77q47 0 77 32.5t37 94.5h-219q0 -61 27 -94t78 -33z" />
    <glyph glyph-name="uni04E2" unicode="&#x4e2;" horiz-adv-x="666" 
d="M83 0v654h115v-284q0 -56 -15 -223h4l68 139l205 368h123v-654h-115v286q0 33 2.5 70t7 84t5.5 67h-4l-67 -138l-206 -369h-123zM194 734v76h286v-76h-286z" />
    <glyph glyph-name="uni04E3" unicode="&#x4e3;" horiz-adv-x="574" 
d="M73 0v491h112v-169q0 -23 -10 -178h3q8 13 30 50.5t31 53.5l156 243h106v-491h-112v169q0 42 11 178h-4q-8 -13 -18.5 -32t-24 -41t-18.5 -31l-156 -243h-106zM150 597v76h280v-76h-280z" />
    <glyph glyph-name="uni04E6" unicode="&#x4e6;" horiz-adv-x="674" 
d="M337 -12q-129 0 -208.5 92.5t-79.5 249.5q0 156 79.5 246t208.5 90q130 0 209.5 -90t79.5 -246q0 -157 -79.5 -249.5t-209.5 -92.5zM337 89q77 0 123 65.5t46 175.5q0 109 -45.5 172t-123.5 63t-123.5 -63t-45.5 -172q0 -110 46 -175.5t123 -65.5zM230 708
q-26 0 -42.5 16.5t-16.5 42.5t16.5 43t42.5 17t43 -17t17 -43t-17 -42.5t-43 -16.5zM444 708q-26 0 -43 16.5t-17 42.5t17 43t43 17t42.5 -17t16.5 -43t-16.5 -42.5t-42.5 -16.5z" />
    <glyph glyph-name="uni04E7" unicode="&#x4e7;" horiz-adv-x="549" 
d="M274 -12q-96 0 -164.5 70t-68.5 187q0 118 68.5 188t164.5 70q97 0 165.5 -70t68.5 -188t-68.5 -187.5t-165.5 -69.5zM274 82q54 0 85 44.5t31 118.5q0 75 -31 119.5t-85 44.5t-84.5 -44.5t-30.5 -119.5q0 -74 31 -118.5t84 -44.5zM171 578q-26 0 -43.5 17.5t-17.5 43.5
t17.5 43.5t43.5 17.5q27 0 44 -17.5t17 -43.5t-17 -43.5t-44 -17.5zM377 578q-27 0 -44 17.5t-17 43.5t17 43.5t44 17.5q26 0 43.5 -17.5t17.5 -43.5t-17.5 -43.5t-43.5 -17.5z" />
    <glyph glyph-name="uni04E8" unicode="&#x4e8;" horiz-adv-x="674" 
d="M337 -12q-130 0 -209 90t-79 252q0 161 78.5 248.5t209.5 87.5t210 -88t79 -248q0 -162 -79.5 -252t-209.5 -90zM337 570q-70 0 -115 -47.5t-55 -136.5h341q-10 89 -55 136.5t-116 47.5zM337 84q74 0 120 54.5t53 155.5h-345q7 -101 52.5 -155.5t119.5 -54.5z" />
    <glyph glyph-name="uni04E9" unicode="&#x4e9;" horiz-adv-x="549" 
d="M274 -12q-98 0 -165.5 68t-67.5 189q0 122 67 190t166 68t166.5 -68t67.5 -190q0 -121 -67.5 -189t-166.5 -68zM274 416q-49 0 -80.5 -32.5t-41.5 -91.5h245q-10 59 -42 91.5t-81 32.5zM274 76q52 0 85 36t40 102h-249q7 -66 39.5 -102t84.5 -36z" />
    <glyph glyph-name="uni04EE" unicode="&#x4ee;" horiz-adv-x="535" 
d="M147 -12q-45 0 -74 12l22 101q19 -7 45 -7q53 0 74 41l12 27l-223 492h123l99 -240l52 -143h4l49 143l90 240h117l-208 -520q-58 -146 -182 -146zM126 728v76h286v-76h-286z" />
    <glyph glyph-name="uni04EF" unicode="&#x4ef;" horiz-adv-x="495" 
d="M106 -202q-34 0 -64 10l21 90q21 -7 35 -7q71 0 98 84l9 31l-193 485h117l85 -241q7 -21 21 -67.5t22 -70.5h4q28 105 37 138l74 241h111l-178 -513q-33 -90 -78 -135t-121 -45zM115 596v76h280v-76h-280z" />
    <glyph glyph-name="uni04F2" unicode="&#x4f2;" horiz-adv-x="535" 
d="M147 -12q-45 0 -74 12l22 101q19 -7 45 -7q53 0 74 41l12 27l-223 492h123l99 -240l52 -143h4l49 143l90 240h117l-208 -520q-58 -146 -182 -146zM150 726l97 157l75 -43l-114 -142zM324 726l97 157l75 -43l-114 -142z" />
    <glyph glyph-name="uni04F3" unicode="&#x4f3;" horiz-adv-x="495" 
d="M106 -202q-34 0 -64 10l21 90q21 -7 35 -7q71 0 98 84l9 31l-193 485h117l85 -241q7 -21 21 -67.5t22 -70.5h4q28 105 37 138l74 241h111l-178 -513q-33 -90 -78 -135t-121 -45zM204 566l-62 28l87 177l79 -36zM369 566l-62 28l87 177l79 -36z" />
    <glyph glyph-name="a.sups" unicode="&#x1d43;" horiz-adv-x="352" 
d="M133 377q-45 0 -72.5 27t-27.5 70q0 53 46 81t147 38q-3 59 -56 59q-39 0 -95 -32l-30 55q71 43 139 43q125 0 125 -141v-192h-67l-8 35h-4q-47 -43 -97 -43zM160 441q32 0 66 33v70q-112 -13 -112 -63q0 -40 46 -40z" />
    <glyph glyph-name="b.sups" unicode="&#x1d47;" horiz-adv-x="380" 
d="M211 377q-50 0 -89 41h-4l-7 -33h-64v465h83v-119l-3 -54q46 41 93 41q61 0 95.5 -44.5t34.5 -119.5q0 -81 -40.5 -129t-98.5 -48zM194 444q31 0 51 28t20 80q0 98 -67 98q-34 0 -68 -34v-147q31 -25 64 -25z" />
    <glyph glyph-name="d.sups" unicode="&#x1d48;" horiz-adv-x="380" 
d="M166 377q-64 0 -100 46.5t-36 130.5q0 73 41.5 118.5t96.5 45.5q46 0 86 -35l-4 54v113h83v-465h-68l-7 33h-3q-43 -41 -89 -41zM188 444q31 0 62 35v146q-31 27 -64 27q-30 0 -50.5 -27t-20.5 -71q0 -110 73 -110z" />
    <glyph glyph-name="e.sups" unicode="&#x1d49;" horiz-adv-x="341" 
d="M190 377q-71 0 -117.5 46t-46.5 125q0 76 45 123t109 47q69 0 103 -45.5t34 -107.5q0 -18 -4 -38h-207q4 -42 29.5 -64t64.5 -22q42 0 77 23l29 -51q-54 -36 -116 -36zM105 577h141q0 32 -16 54.5t-49 22.5q-30 0 -50.5 -20t-25.5 -57z" />
    <glyph glyph-name="g.sups" unicode="&#x1d4d;" horiz-adv-x="352" 
d="M162 242q-61 0 -98.5 21.5t-37.5 63.5q0 41 46 67v4q-29 19 -29 54t36 60v4q-44 29 -44 84t38.5 86.5t94.5 31.5q32 0 52 -8h116v-62h-57q16 -20 16 -50q0 -53 -36 -82.5t-91 -29.5q-22 0 -43 8q-15 -12 -15 -28q0 -27 52 -27h58q121 0 121 -81q0 -50 -49 -83t-130 -33z
M168 539q23 0 38.5 16.5t15.5 44.5q0 29 -15 45t-39 16q-25 0 -40 -16t-15 -45q0 -28 15.5 -44.5t39.5 -16.5zM176 296q37 0 61 14t24 35q0 29 -55 29h-43q-30 0 -44 4q-24 -18 -24 -38q0 -21 21.5 -32.5t59.5 -11.5z" />
    <glyph glyph-name="k.sups" unicode="&#x1d4f;" horiz-adv-x="354" 
d="M47 385v465h83v-283h4l114 143h91l-116 -135l127 -190h-91l-83 135l-46 -54v-81h-83z" />
    <glyph glyph-name="m.sups" unicode="&#x1d50;" horiz-adv-x="568" 
d="M47 385v325h67l7 -44h3q48 52 100 52q67 0 91 -58q54 58 107 58q103 0 103 -130v-203h-83v192q0 36 -11 53.5t-39 17.5q-27 0 -64 -38v-225h-84v192q0 36 -11 53.5t-39 17.5q-26 0 -64 -38v-225h-83z" />
    <glyph glyph-name="o.sups" unicode="&#x1d52;" horiz-adv-x="369" 
d="M184 377q-66 0 -111.5 46t-45.5 124t45.5 124.5t111.5 46.5t111.5 -46.5t45.5 -124.5t-45.5 -124t-111.5 -46zM184 444q35 0 53.5 28t18.5 75q0 48 -18.5 76.5t-53.5 28.5t-53.5 -28.5t-18.5 -76.5q0 -47 18.5 -75t53.5 -28z" />
    <glyph glyph-name="p.sups" unicode="&#x1d56;" horiz-adv-x="380" 
d="M47 250v460h66l7 -35h3q47 43 97 43q61 0 95.5 -44.5t34.5 -119.5q0 -81 -40.5 -129t-98.5 -48q-46 0 -85 36l4 -65v-98h-83zM194 444q31 0 51 28t20 80q0 98 -67 98q-34 0 -68 -34v-147q31 -25 64 -25z" />
    <glyph glyph-name="t.sups" unicode="&#x1d57;" horiz-adv-x="246" 
d="M167 377q-107 0 -107 122v146h-46v62l50 3l10 88h70v-88h82v-65h-82v-146q0 -57 45 -57q18 0 33 7l16 -60q-38 -12 -71 -12z" />
    <glyph glyph-name="u.sups" unicode="&#x1d58;" horiz-adv-x="377" 
d="M148 377q-104 0 -104 129v204h84v-193q0 -37 10 -53.5t40 -16.5q34 0 70 39v224h83v-325h-66l-9 43h-3q-49 -51 -105 -51z" />
    <glyph glyph-name="v.sups" unicode="&#x1d5b;" horiz-adv-x="338" 
d="M121 385l-113 325h83l49 -163l29 -99h3l29 99l49 163h80l-112 -325h-97z" />
    <glyph glyph-name="c.sups" unicode="&#x1d9c;" horiz-adv-x="310" 
d="M186 377q-71 0 -115 45.5t-44 125.5q0 77 47.5 123.5t114.5 46.5q63 0 101 -34l-38 -54q-27 22 -56 22q-36 0 -60 -29.5t-24 -74.5q0 -46 23 -75t60 -29q36 0 66 24l34 -53q-46 -38 -109 -38z" />
    <glyph glyph-name="f.sups" unicode="&#x1da0;" horiz-adv-x="217" 
d="M62 385v261h-45v61l45 3v27q0 56 28 91t85 35q35 0 62 -11l-16 -60q-18 6 -35 6q-41 0 -41 -57v-31h64v-64h-64v-261h-83z" />
    <glyph glyph-name="z.sups" unicode="&#x1dbb;" horiz-adv-x="301" 
d="M23 385v45l152 215h-134v65h238v-45l-152 -215h157v-65h-261z" />
    <glyph glyph-name="uni1E06" unicode="&#x1e06;" horiz-adv-x="597" 
d="M83 0v654h209q234 0 234 -161q0 -48 -24.5 -87.5t-66.5 -54.5v-4q57 -13 91 -52.5t34 -102.5q0 -95 -69 -143.5t-182 -48.5h-226zM199 384h83q130 0 130 92q0 47 -31.5 67.5t-96.5 20.5h-85v-180zM199 90h98q150 0 150 108q0 99 -150 99h-98v-207zM167 -180v76h280v-76
h-280z" />
    <glyph glyph-name="uni1E07" unicode="&#x1e07;" horiz-adv-x="563" 
d="M311 -12q-70 0 -134 64h-3l-10 -52h-91v706h115v-182l-3 -82q69 61 142 61q91 0 142.5 -67t51.5 -182q0 -122 -62 -194t-148 -72zM287 83q51 0 83 44t32 125q0 156 -106 156q-52 0 -108 -55v-229q48 -41 99 -41zM149 -180v76h280v-76h-280z" />
    </font>
</defs>
</svg>
